Mission - Impossible 1996 x264 720p Esub BluRay Dual Audio English Hindi THE GOPI SAHI

Directed byBrian De Palma
Produced by
Screenplay by
Story by
Based onMission: Impossible
by Bruce Geller
Starring
Music byDanny Elfman
CinematographyStephen H. Burum
Edited byPaul Hirsch
Production
company
Distributed byParamount Pictures[1]
Release date
  • May 22, 1996
Running time
110 minutes[2]
CountryUnited States
LanguageEnglish
Budget$80 million[3]
Box office$457.7 million[3]

 

Mission - Impossible 1996 GOPISAHI


Format                         : Matroska
Format version                 : Version 4
File size                      : 944 MiB
Duration                       : 1 h 50 min
Overall bit rate               : 1 198 kb/s
Movie name                     : Mission: Impossible 1996 GOPISAHI
Encoded date                   : UTC 2019-08-07 05:08:35

Video
ID                             : 1
Format                         : AVC
Format/Info                    : Advanced Video Codec
Format profile                 : [email protected]
Format settings                : CABAC / 12 Ref Frames
Format settings, CABAC         : Yes
Format settings, Reference fra : 12 frames
Codec ID                       : V_MPEG4/ISO/AVC
Duration                       : 1 h 50 min
Bit rate                       : 899 kb/s
Width                          : 1 280 pixels
Height                         : 532 pixels
Display aspect ratio           : 2.40:1
Frame rate mode                : Constant
Frame rate                     : 23.976 (24000/1001) FPS
Color space                    : YUV
Chroma subsampling             : 4:2:0
Bit depth                      : 8 bits
Scan type                      : Progressive
Bits/(Pixel*Frame)             : 0.055
Stream size                    : 709 MiB (75%)
Title                          : GOPISAHI
Writing library                : x264 core 157 r2935 545de2f

Audio #1
ID                             : 2
Format                         : AAC LC
Format/Info                    : Advanced Audio Codec Low Complexity
Codec ID                       : A_AAC-2
Duration                       : 1 h 50 min
Bit rate                       : 96.0 kb/s
Channel(s)                     : 2 channels
Channel layout                 : L R
Sampling rate                  : 48.0 kHz
Frame rate                     : 46.875 FPS (1024 SPF)
Compression mode               : Lossy
Delay relative to video        : 669 ms
Stream size                    : 76.0 MiB (8%)
Title                          : GOPISAHI
Language                       : Hindi
Default                        : Yes
Forced                         : No

Audio #2
ID                             : 3
Format                         : AAC LC
Format/Info                    : Advanced Audio Codec Low Complexity
Codec ID                       : A_AAC-2
Duration                       : 1 h 50 min
Bit rate                       : 192 kb/s
Channel(s)                     : 6 channels
Channel layout                 : C L R Ls Rs LFE
Sampling rate                  : 48.0 kHz
Frame rate                     : 46.875 FPS (1024 SPF)
Compression mode               : Lossy
Delay relative to video        : -21 ms
Stream size                    : 151 MiB (16%)
Title                          : GOPISAHI
Language                       : English
Default                        : No
Forced                         : No

Text
ID                             : 4
Format                         : PGS
Muxing mode                    : zlib
Codec ID                       : S_HDMV/PGS
Codec ID/Info                  : Picture based subtitle format used on BDs/HD-DVDs
Duration                       : 1 h 45 min
Bit rate                       : 26.1 kb/s
Count of elements              : 1908
Stream size                    : 19.7 MiB (2%)
Title                          : GOPISAHI
Language                       : English
Default                        : Yes
Forced                         : Yes

Menu
00:00:00.000                   : en:Chapter 01
00:03:00.972                   : en:Chapter 02
00:10:44.727                   : en:Chapter 03
00:26:43.811                   : en:Chapter 04
00:32:21.481                   : en:Chapter 05
00:39:50.388                   : en:Chapter 06
00:49:39.143                   : en:Chapter 07
00:55:45.634                   : en:Chapter 08
01:12:25.716                   : en:Chapter 09
01:18:34.460                   : en:Chapter 10
01:28:14.539                   : en:Chapter 11
01:38:06.714                   : en:Chapter 12
01:44:02.778                   : en:Chapter 13




MAGNET

TORRENT
 

 ALL COL TORRENT 2

GDRIVE FILE COPY

DWONLOAD AUTO START IN 20 SEC

DOWNLOAD AND ONLINE TERABOX LINK = PASSWORD = nu6a

ALL 6 MOVIE COLLITION 6 GB DWONLOAD AUTO START IN 20 SEC ZIP

MULTIUP

MIRRORACE

MEDIAFIRE

ONLINE 720P


ONLINE 720P

Post a Comment

0 Comments