Mortal Kombat 2021 x264 720p Esub BluRay Dual Audio English Hindi 5.1 THE GOPI SAHI

 

Mortal Kombat (2021)

A 04/23/2021 (IN) ActionFantasyAdventure 1h 50m 
 

Get over here.

Overview

Washed-up MMA fighter Cole Young, unaware of his heritage, and hunted by Emperor Shang Tsung's best warrior, Sub-Zero, seeks out and trains with Earth's greatest champions as he prepares to stand against the enemies of Outworld in a high stakes battle for the universe.

  1. Greg Russo

    Screenplay, Story

  2. Simon McQuoid

    Director

  3. Dave Callaham

    Screenplay

  4. Oren Uziel

    Story

Directed bySimon McQuoid
Produced by
Screenplay by
Story by
  • Oren Uziel
  • Greg Russo
Based onMortal Kombat
by Ed Boon
John Tobias
Starring
Music byBenjamin Wallfisch
CinematographyGermain McMicking
Edited by
  • Dan Lebental
  • Scott Gray
Production
companies
Distributed byWarner Bros. Pictures
Release date
  • April 8, 2021 (international)
  • April 23, 2021 (United States)
Running time
110 minutes
CountryUnited States
LanguageEnglish
Budget$55 million[1]
Box office$77.1 million[2][3]


Mortal Kombat 2021 x264 720p WebHD Esub Dual Audio English Hindi 5.1 THE GOPI SAHI


Format                         : Matroska
Format version                 : Version 4
File size                      : 926 MiB
Duration                       : 1 h 50 min
Overall bit rate               : 1 176 kb/s
Movie name                     : Mortal Kombat 2021 GOPI SAHI
Encoded date                   : UTC 2021-05-23 09:02:57

Video
ID                             : 1
Format                         : AVC
Format/Info                    : Advanced Video Codec
Format profile                 : [email protected]
Format settings                : CABAC / 5 Ref Frames
Format settings, CABAC         : Yes
Format settings, Reference fra : 5 frames
Codec ID                       : V_MPEG4/ISO/AVC
Duration                       : 1 h 50 min
Bit rate                       : 899 kb/s
Width                          : 1 280 pixels
Height                         : 536 pixels
Display aspect ratio           : 2.40:1
Frame rate mode                : Constant
Frame rate                     : 23.976 (24000/1001) FPS
Color space                    : YUV
Chroma subsampling             : 4:2:0
Bit depth                      : 8 bits
Scan type                      : Progressive
Bits/(Pixel*Frame)             : 0.055
Stream size                    : 696 MiB (75%)
Title                          : GOPI SAHI
Writing library                : x264 core 157 r2935 545de2f

Audio #1
ID                             : 2
Format                         : AAC LC
Format/Info                    : Advanced Audio Codec Low Complexity
Codec ID                       : A_AAC-2
Duration                       : 1 h 50 min
Bit rate                       : 192 kb/s
Channel(s)                     : 6 channels
Channel layout                 : C L R Ls Rs LFE
Sampling rate                  : 48.0 kHz
Frame rate                     : 46.875 FPS (1024 SPF)
Compression mode               : Lossy
Delay relative to video        : 979 ms
Stream size                    : 151 MiB (16%)
Title                          : GOPI SAHI
Language                       : Hindi
Default                        : No
Forced                         : No

Audio #2
ID                             : 3
Format                         : AAC LC
Format/Info                    : Advanced Audio Codec Low Complexity
Codec ID                       : A_AAC-2
Duration                       : 1 h 50 min
Bit rate                       : 96.0 kb/s
Channel(s)                     : 2 channels
Channel layout                 : L R
Sampling rate                  : 48.0 kHz
Frame rate                     : 46.875 FPS (1024 SPF)
Compression mode               : Lossy
Delay relative to video        : -21 ms
Stream size                    : 75.9 MiB (8%)
Title                          : GOPI SAHI
Language                       : English
Default                        : Yes
Forced                         : No

Text

Language                       : English



 

MAGNET

TORRENT

TORRENT 2 480P AND 720P CHOOSE WHICH ONE DWONLOAD

GDRIVE FILE COPY

DWONLOAD AUTO START IN 20 SEC


DOWNLOAD AND ONLINE TERABOX LINK = PASSWORD = 13y3

DWONLOAD AUTO START IN 20 SEC ZIP FILE


628 MB HINDI 480P HINDI DWONLOAD AUTO START IN 20 SEC

MULTIUP

MIRRORACE

MEDIAFIRE

ONLINE 720P


ONLINE 720P