Munich 2005 x264 720p Esub BluRay Dual Audio English Hindi THE GOPI SAHI

Munich (2005)

 
 
Based on the true story of the Black September aftermath, about the five men chosen to eliminate the ones responsible for that fateful day.
EN

Director:

Steven Spielberg

Writers:

Tony Kushner (screenplay), Eric Roth (screenplay) | 1 more credit »
 
7.5/10
214,600

 

Directed bySteven Spielberg
Produced by
Screenplay by
Based onVengeance
by George Jonas
Starring
Music byJohn Williams
CinematographyJanusz Kamiński
Edited byMichael Kahn
Production
companies
Distributed by
Release date
  • December 23, 2005 (United States)
Running time
163 minutes
Countries
  • United States
  • Canada
Languages
  • English
  • French
Budget$70 million[1]
Box office$131 million[1]

 

 


Munich 2005 x264 720p Esub BluRay Dual Audio English Hindi THE GOPI SAHI

Format                         : Matroska
Format version                 : Version 4
File size                      : 1.28 GiB
Duration                       : 2 h 44 min
Overall bit rate               : 1 117 kb/s
Movie name                     : Munich 2005 GOPI SAHI
Encoded date                   : UTC 2020-08-08 03:48:56

Video
ID                             : 1
Format                         : AVC
Format/Info                    : Advanced Video Codec
Format profile                 : [email protected]
Format settings                : CABAC / 5 Ref Frames
Format settings, CABAC         : Yes
Format settings, Reference fra : 5 frames
Codec ID                       : V_MPEG4/ISO/AVC
Duration                       : 2 h 43 min
Bit rate                       : 899 kb/s
Width                          : 1 280 pixels
Height                         : 544 pixels
Display aspect ratio           : 2.35:1
Frame rate mode                : Constant
Frame rate                     : 23.976 (24000/1001) FPS
Color space                    : YUV
Chroma subsampling             : 4:2:0
Bit depth                      : 8 bits
Scan type                      : Progressive
Bits/(Pixel*Frame)             : 0.054
Stream size                    : 1.03 GiB (80%)
Title                          : GOPI SAHI
Writing library                : x264 core 157 r2935 545de2f

Audio #1
ID                             : 2
Format                         : AAC LC
Format/Info                    : Advanced Audio Codec Low Complexity
Codec ID                       : A_AAC-2
Duration                       : 2 h 44 min
Bit rate                       : 96.0 kb/s
Channel(s)                     : 2 channels
Channel layout                 : L R
Sampling rate                  : 48.0 kHz
Frame rate                     : 46.875 FPS (1024 SPF)
Compression mode               : Lossy
Delay relative to video        : 841 ms
Stream size                    : 113 MiB (9%)
Title                          : GOPI SAHI
Language                       : Hindi
Default                        : Yes
Forced                         : No

Audio #2
ID                             : 3
Format                         : AAC LC
Format/Info                    : Advanced Audio Codec Low Complexity
Codec ID                       : A_AAC-2
Duration                       : 2 h 43 min
Bit rate                       : 96.0 kb/s
Channel(s)                     : 2 channels
Channel layout                 : L R
Sampling rate                  : 48.0 kHz
Frame rate                     : 46.875 FPS (1024 SPF)
Compression mode               : Lossy
Delay relative to video        : -21 ms
Stream size                    : 113 MiB (9%)
Title                          : GOPI SAHI
Language                       : English
Default                        : No
Forced                         : No

Text #1
ID                             : 4
Format                         : PGS
Muxing mode                    : zlib
Codec ID                       : S_HDMV/PGS
Codec ID/Info                  : Picture based subtitle format used on BDs/HD-DVDs
Duration                       : 2 h 42 min
Bit rate                       : 753 b/s
Count of elements              : 104
Stream size                    : 898 KiB (0%)
Title                          : GOPI SAHI
Language                       : Hindi
Default                        : Yes
Forced                         : Yes

Text #2
ID                             : 5
Format                         : PGS
Muxing mode                    : zlib
Codec ID                       : S_HDMV/PGS
Codec ID/Info                  : Picture based subtitle format used on BDs/HD-DVDs
Duration                       : 2 h 42 min
Bit rate                       : 21.8 kb/s
Count of elements              : 3266
Stream size                    : 25.3 MiB (2%)
Title                          : GOPI SAHI
Language                       : Hindi
Default                        : No
Forced                         : No

Text #3
ID                             : 6
Format                         : PGS
Muxing mode                    : zlib
Codec ID                       : S_HDMV/PGS
Codec ID/Info                  : Picture based subtitle format used on BDs/HD-DVDs
Duration                       : 2 h 34 min
Bit rate                       : 22.3 kb/s
Count of elements              : 3271
Stream size                    : 24.7 MiB (2%)
Title                          : GOPI SAHI
Language                       : English
Default                        : No
Forced                         : No

Text #4
ID                             : 7
Format                         : PGS
Muxing mode                    : zlib
Codec ID                       : S_HDMV/PGS
Codec ID/Info                  : Picture based subtitle format used on BDs/HD-DVDs
Duration                       : 2 h 34 min
Bit rate                       : 25.0 kb/s
Count of elements              : 3713
Stream size                    : 27.7 MiB (2%)
Title                          : GOPI SAHI
Language                       : English
Default                        : No
Forced                         : No

Text #5
ID                             : 8
Format                         : PGS
Muxing mode                    : zlib
Codec ID                       : S_HDMV/PGS
Codec ID/Info                  : Picture based subtitle format used on BDs/HD-DVDs
Duration                       : 1 h 17 min
Bit rate                       : 1 219 b/s
Count of elements              : 78
Stream size                    : 692 KiB (0%)
Title                          : GOPI SAHI
Language                       : English
Default                        : No
Forced                         : Yes

Menu
00:00:00.000                   : :Black September
00:09:28.318                   : :Eleven Names
00:22:59.003                   : :Seeking Revenge
00:33:30.842                   : :First Target Acquired
00:41:28.319                   : :The Voice of Terror
00:47:26.510                   : :Innocent Lies
00:58:31.216                   : :A Question of Trust
01:07:29.170                   : :Significent Information
01:16:26.832                   : :Meeting Papa
01:25:08.979                   : :In the Safe House
01:34:04.973                   : :The Cost of Killing
01:45:00.336                   : :Outside Interference
01:54:22.731                   : :Isolation
01:59:06.890                   : :Evil Falls Suddenly
02:06:48.768                   : :Growing Paranoid
02:12:19.515                   : :Uncompromised Loyalty
02:19:41.582                   : :A Place on Earth
02:27:39.351                   : :Family Matters
02:32:27.972                   : :Choices
02:36:28.546                   : :End Titles




 MAGNET

TORRENT

TORRENT 2 ZIP FILE

GDRIVE FILE COPY

DWONLOAD AUTO START IN 20 SEC ZIP FILE

DOWNLOAD AND ONLINE DUBOX LINK = PASSWORD = as9s

MULTIUP

MIRRORACE

MEDIAFIRE

ONLINE 720P

ONLINE 720P