Push 2009 x264 720p BluRay Dual Audio English Hindi THE GOPI SAHI

Push (2009)

 
Two young Americans with special abilities must race to find a girl in Hong Kong before a shadowy government organization called Division does.
EN

Director:

Paul McGuigan

Writer:

David Bourla
 
6.1/10
106,800

 

Directed byPaul McGuigan
Produced by
Written byDavid Bourla
Starring
Music byNeil Davidge
CinematographyPeter Sova
Edited byNicolas Trembasiewicz
Production
company
Distributed bySummit Entertainment
Release date
  • February 6, 2009
Running time
111 minutes[1]
CountryUnited States
Budget$38 million[2]
Box office$48.9 million[2]

 

 

Push 2009 x264 720p BluRay Dual Audio English Hindi THE GOPI SAHI


Format                         : Matroska
Format version                 : Version 4
File size                      : 872 MiB
Duration                       : 1 h 51 min
Overall bit rate               : 1 094 kb/s
Movie name                     : Push 2009 GOPI SAHI
Encoded date                   : UTC 2020-11-05 13:43:05

Video
ID                             : 1
Format                         : AVC
Format/Info                    : Advanced Video Codec
Format profile                 : [email protected]
Format settings                : CABAC / 5 Ref Frames
Format settings, CABAC         : Yes
Format settings, Reference fra : 5 frames
Codec ID                       : V_MPEG4/ISO/AVC
Duration                       : 1 h 51 min
Bit rate                       : 899 kb/s
Width                          : 1 280 pixels
Height                         : 544 pixels
Display aspect ratio           : 2.35:1
Frame rate mode                : Constant
Frame rate                     : 23.976 (24000/1001) FPS
Color space                    : YUV
Chroma subsampling             : 4:2:0
Bit depth                      : 8 bits
Scan type                      : Progressive
Bits/(Pixel*Frame)             : 0.054
Stream size                    : 716 MiB (82%)
Title                          : GOPI SAHI
Writing library                : x264 core 157 r2935 545de2f


Audio #1
ID                             : 2
Format                         : AAC LC
Format/Info                    : Advanced Audio Codec Low Complexity
Codec ID                       : A_AAC-2
Duration                       : 1 h 51 min
Bit rate                       : 96.0 kb/s
Channel(s)                     : 2 channels
Channel layout                 : L R
Sampling rate                  : 48.0 kHz
Frame rate                     : 46.875 FPS (1024 SPF)
Compression mode               : Lossy
Delay relative to video        : 1 s 179 ms
Stream size                    : 77.0 MiB (9%)
Title                          : GOPI SAHI
Language                       : Hindi
Default                        : Yes
Forced                         : No

Audio #2
ID                             : 3
Format                         : AAC LC
Format/Info                    : Advanced Audio Codec Low Complexity
Codec ID                       : A_AAC-2
Duration                       : 1 h 51 min
Bit rate                       : 96.0 kb/s
Channel(s)                     : 2 channels
Channel layout                 : L R
Sampling rate                  : 48.0 kHz
Frame rate                     : 46.875 FPS (1024 SPF)
Compression mode               : Lossy
Delay relative to video        : -21 ms
Stream size                    : 76.7 MiB (9%)
Title                          : GOPI SAHI
Language                       : English
Default                        : No
Forced                         : No




MAGNET

TORRENT

TORRENT 2  FILE

GDRIVE FILE COPY

DWONLOAD AUTO START IN 20 SEC

DOWNLOAD AND ONLINE DUBOX LINK
= PASSWORD = i64h

MULTIUP


MIRRORACE

MEDIAFIRE

ONLINE 720P

ONLINE 720P