Rambo 2008 Extended Cut x264 720p Esub BluRay Dual Audio English Hindi THE GOPI SAHI

 

Rambo (2008)

 
In Thailand, John Rambo joins a group of mercenaries to venture into war-torn Burma, and rescue a group of Christian aid workers who were kidnapped by the ruthless local infantry unit.
EN

Director:

Sylvester Stallone
 
7.0/10
220,229

 

Directed bySylvester Stallone
Produced byAvi Lerner
Kevin King Templeton
John Thompson
Written byArt Monterastelli
Sylvester Stallone
Based onJohn Rambo
by David Morrell
Starring
Music byBrian Tyler
CinematographyGlen MacPherson
Edited bySean Albertson
Production
companies
Nu Image
Equity Pictures Medienfonds GmbH & Co. KG IV[1]
Distributed byLionsgate[2]
The Weinstein Company
Release date
  • January 25, 2008 (United States)
Running time
91 minutes[3]
CountryUnited States
LanguageEnglish
Budget$50 million[4]
Box office$113.2 million[4]

 

4 Rambo 2008 Extended Cut GOPI SAHI

 Format                         : Matroska
Format version                 : Version 4
File size                      : 915 MiB
Duration                       : 1 h 39 min
Overall bit rate               : 1 289 kb/s
Movie name                     : Rambo 2008 Extended Cut GOPI SAHI
Encoded date                   : UTC 2021-05-09 14:04:00

Video
ID                             : 1
Format                         : AVC
Format/Info                    : Advanced Video Codec
Format profile                 : [email protected]
Format settings                : CABAC / 5 Ref Frames
Format settings, CABAC         : Yes
Format settings, Reference fra : 5 frames
Codec ID                       : V_MPEG4/ISO/AVC
Duration                       : 1 h 39 min
Bit rate                       : 899 kb/s
Width                          : 1 280 pixels
Height                         : 532 pixels
Display aspect ratio           : 2.40:1
Frame rate mode                : Constant
Frame rate                     : 23.976 (24000/1001) FPS
Color space                    : YUV
Chroma subsampling             : 4:2:0
Bit depth                      : 8 bits
Scan type                      : Progressive
Bits/(Pixel*Frame)             : 0.055
Stream size                    : 638 MiB (70%)
Title                          : GOPI SAHI
Writing library                : x264 core 157 r2935 545de2f

Audio #1
ID                             : 2
Format                         : AAC LC
Format/Info                    : Advanced Audio Codec Low Complexity
Codec ID                       : A_AAC-2
Duration                       : 1 h 38 min
Bit rate                       : 192 kb/s
Channel(s)                     : 6 channels
Channel layout                 : C L R Ls Rs LFE
Sampling rate                  : 48.0 kHz
Frame rate                     : 46.875 FPS (1024 SPF)
Compression mode               : Lossy
Delay relative to video        : 683 ms
Stream size                    : 135 MiB (15%)
Title                          : GOPI SAHI
Language                       : Hindi
Default                        : Yes
Forced                         : No

Audio #2
ID                             : 3
Format                         : AAC LC
Format/Info                    : Advanced Audio Codec Low Complexity
Codec ID                       : A_AAC-2
Duration                       : 1 h 39 min
Bit rate                       : 192 kb/s
Channel(s)                     : 6 channels
Channel layout                 : C L R Ls Rs LFE
Sampling rate                  : 48.0 kHz
Frame rate                     : 46.875 FPS (1024 SPF)
Compression mode               : Lossy
Delay relative to video        : -21 ms
Stream size                    : 137 MiB (15%)
Title                          : GOPI SAHI
Language                       : English
Default                        : No
Forced                         : No

Text
ID                             : 4
Format                         : PGS
Muxing mode                    : zlib
Codec ID                       : S_HDMV/PGS
Codec ID/Info                  : Picture based subtitle format used on BDs/HD-DVDs
Duration                       : 1 h 25 min
Bit rate                       : 19.0 kb/s
Count of elements              : 1122
Stream size                    : 11.6 MiB (1%)
Title                          : GOPI SAHI
Language                       : English
Default                        : Yes
Forced                         : Yes

Menu
00:00:00.000                   : :Chapter 1
00:06:05.365                   : :Chapter 2
00:13:15.586                   : :Chapter 3
00:19:38.844                   : :Chapter 4
00:22:54.582                   : :Chapter 5
00:30:59.191                   : :Chapter 6
00:37:30.248                   : :Chapter 7
00:43:19.013                   : :Chapter 8
00:48:02.922                   : :Chapter 9
00:50:31.070                   : :Chapter 10
00:55:54.351                   : :Chapter 11
01:03:09.077                   : :Chapter 12
01:08:06.040                   : :Chapter 13
01:16:30.961                   : :Chapter 14
01:22:51.884                   : :Chapter 15
01:27:18.442                   : :Chapter 16




MAGNET

TORRENT

TORRENT 2 ZIP FILE

GDRIVE FILE COPY

DWONLOAD AUTO START IN 20 SEC ZIP FILE

DOWNLOAD AND ONLINE DUBOX LINK = PASSWORD = xixs

MULTIUP


MIRRORACE

MEDIAFIRE


ONLINE 720P


ONLINE 720P

 

Post a Comment

0 Comments