Rambo- First Blood 1982 x264 720p Esub BluRay Dual Audio English Hindi THE GOPI SAHI

 

First Blood (1982)

 
 
A veteran Green Beret is forced by a cruel Sheriff and his deputies to flee into the mountains and wage an escalating one-man war against his pursuers.
EN

Director:

Ted Kotcheff

Writers:

David Morrell (based on the novel by), Michael Kozoll (screenplay by) | 2 more credits »
7.7/10
231,065

 

Directed byTed Kotcheff
Produced byBuzz Feitshans
Screenplay by
Based onFirst Blood
by David Morrell
Starring
Music byJerry Goldsmith
CinematographyAndrew Laszlo
Edited byJoan Chapman
Production
companies
Anabasis Investments, N.V.[1]
Distributed byOrion Pictures[1]
Release date
  • October 22, 1982 (United States)
Running time
93 minutes[2]
CountryUnited States
LanguageEnglish
Budget$15 million[3]
Box office$125.2 million[4]

 

 

1 Rambo- First Blood 1982  GOPI SAHI


Format                         : Matroska
Format version                 : Version 4
File size                      : 862 MiB
Duration                       : 1 h 33 min
Overall bit rate               : 1 292 kb/s
Movie name                     : Rambo: First Blood 1982  GOPI SAHI
Encoded date                   : UTC 2021-05-09 05:30:19

Video
ID                             : 1
Format                         : AVC
Format/Info                    : Advanced Video Codec
Format profile                 : [email protected]
Format settings                : CABAC / 5 Ref Frames
Format settings, CABAC         : Yes
Format settings, Reference fra : 5 frames
Codec ID                       : V_MPEG4/ISO/AVC
Duration                       : 1 h 33 min
Bit rate                       : 899 kb/s
Width                          : 1 280 pixels
Height                         : 546 pixels
Display aspect ratio           : 2.35:1
Frame rate mode                : Constant
Frame rate                     : 23.976 (24000/1001) FPS
Color space                    : YUV
Chroma subsampling             : 4:2:0
Bit depth                      : 8 bits
Scan type                      : Progressive
Bits/(Pixel*Frame)             : 0.054
Stream size                    : 600 MiB (70%)
Title                          : GOPI SAHI
Writing library                : x264 core 157 r2935 545de2f

Audio #1
ID                             : 2
Format                         : AAC LC
Format/Info                    : Advanced Audio Codec Low Complexity
Codec ID                       : A_AAC-2
Duration                       : 1 h 33 min
Bit rate                       : 192 kb/s
Channel(s)                     : 6 channels
Channel layout                 : C L R Ls Rs LFE
Sampling rate                  : 48.0 kHz
Frame rate                     : 46.875 FPS (1024 SPF)
Compression mode               : Lossy
Delay relative to video        : 872 ms
Stream size                    : 128 MiB (15%)
Title                          : GOPI SAHI
Language                       : Hindi
Default                        : Yes
Forced                         : No

Audio #2
ID                             : 3
Format                         : AAC LC
Format/Info                    : Advanced Audio Codec Low Complexity
Codec ID                       : A_AAC-2
Duration                       : 1 h 33 min
Bit rate                       : 192 kb/s
Channel(s)                     : 6 channels
Channel layout                 : C L R Ls Rs LFE
Sampling rate                  : 48.0 kHz
Frame rate                     : 46.875 FPS (1024 SPF)
Compression mode               : Lossy
Delay relative to video        : -21 ms
Stream size                    : 128 MiB (15%)
Title                          : GOPI SAHI
Language                       : English
Default                        : No
Forced                         : No

Text
ID                             : 4
Format                         : PGS
Muxing mode                    : zlib
Codec ID                       : S_HDMV/PGS
Codec ID/Info                  : Picture based subtitle format used on BDs/HD-DVDs
Duration                       : 1 h 30 min
Bit rate                       : 21.2 kb/s
Count of elements              : 1218
Stream size                    : 13.8 MiB (2%)
Title                          : GOPI SAHI
Language                       : English
Default                        : Yes
Forced                         : Yes

Menu
00:00:00.000                   : :Chapter 1
00:04:59.841                   : :Chapter 2
00:09:54.010                   : :Chapter 3
00:17:36.722                   : :Chapter 4
00:23:19.648                   : :Chapter 5
00:30:46.470                   : :Chapter 6
00:36:54.003                   : :Chapter 7
00:42:12.113                   : :Chapter 8
00:48:37.540                   : :Chapter 9
00:53:55.274                   : :Chapter 10
01:00:01.598                   : :Chapter 11
01:08:01.911                   : :Chapter 12
01:13:48.090                   : :Chapter 13
01:17:42.533                   : :Chapter 14
01:22:46.545                   : :Chapter 15
01:29:44.546                   : :Chapter 16





 MAGNET

TORRENT

TORRENT 2 ZIP FILE

GDRIVE FILE COPY


DWONLOAD AUTO START IN 20 SEC ZIP FILE

DOWNLOAD AND ONLINE DUBOX LINK = PASSWORD = g95s

MULTIUP

MIRRORACE

MEDIAFIRE

ONLINE 720P

ONLINE 720P


Post a Comment

0 Comments