Rambo- First Blood Part II 1985 x264 720p Esub BluRay Dual Audio English Hindi THE GOPI SAHI

Rambo: First Blood Part II (1985)

 
 
Rambo returns to the jungles of Vietnam on a mission to infiltrate an enemy base-camp and rescue the American POWs still held captive there.
EN

Director:

George P. Cosmatos

Writers:

David Morrell (based on characters created by), Kevin Jarre (story by) | 2 more credits »
 
6.5/10
157,150
Directed byGeorge P. Cosmatos
Produced byBuzz Feitshans
Screenplay bySylvester Stallone
James Cameron
Story byKevin Jarre
Based onJohn Rambo
by David Morrell
Starring
Music byJerry Goldsmith
CinematographyJack Cardiff
Edited by
Production
companies
Distributed byTriStar Pictures[1]
Release date
  • May 22, 1985 (United States)
Running time
96 minutes[3]
CountryUnited States[4]
LanguageEnglish
Budget$25.5 million[5]
Box office$300.4 million[6] 

 

2 Rambo- First Blood Part II 1985 GOPI SAHI

Format                         : Matroska
Format version                 : Version 4
File size                      : 886 MiB
Duration                       : 1 h 36 min
Overall bit rate               : 1 290 kb/s
Movie name                     : Rambo: First Blood Part II 1985 GOPI SAHI
Encoded date                   : UTC 2021-05-09 14:02:05
Writing application            : mkvmerge v56.1.0 ('My Friend') 64-bit
Writing library                : libebml v1.4.2 + libmatroska v1.6.4

Video
ID                             : 1
Format                         : AVC
Format/Info                    : Advanced Video Codec
Format profile                 : [email protected]
Format settings                : CABAC / 5 Ref Frames
Format settings, CABAC         : Yes
Format settings, Reference fra : 5 frames
Codec ID                       : V_MPEG4/ISO/AVC
Duration                       : 1 h 36 min
Bit rate                       : 899 kb/s
Width                          : 1 280 pixels
Height                         : 544 pixels
Display aspect ratio           : 2.35:1
Frame rate mode                : Constant
Frame rate                     : 23.976 (24000/1001) FPS
Color space                    : YUV
Chroma subsampling             : 4:2:0
Bit depth                      : 8 bits
Scan type                      : Progressive
Bits/(Pixel*Frame)             : 0.054
Stream size                    : 617 MiB (70%)
Title                          : GOPI SAHI
Writing library                : x264 core 157 r2935 545de2f

Audio #1
ID                             : 2
Format                         : AAC LC
Format/Info                    : Advanced Audio Codec Low Complexity
Codec ID                       : A_AAC-2
Duration                       : 1 h 35 min
Bit rate                       : 192 kb/s
Channel(s)                     : 6 channels
Channel layout                 : C L R Ls Rs LFE
Sampling rate                  : 48.0 kHz
Frame rate                     : 46.875 FPS (1024 SPF)
Compression mode               : Lossy
Delay relative to video        : 691 ms
Stream size                    : 132 MiB (15%)
Title                          : GOPI SAHI
Language                       : Hindi
Default                        : Yes
Forced                         : No

Audio #2
ID                             : 3
Format                         : AAC LC
Format/Info                    : Advanced Audio Codec Low Complexity
Codec ID                       : A_AAC-2
Duration                       : 1 h 36 min
Bit rate                       : 192 kb/s
Channel(s)                     : 6 channels
Channel layout                 : C L R Ls Rs LFE
Sampling rate                  : 48.0 kHz
Frame rate                     : 46.875 FPS (1024 SPF)
Compression mode               : Lossy
Delay relative to video        : -21 ms
Stream size                    : 132 MiB (15%)
Title                          : GOPI SAHI
Language                       : English
Default                        : No
Forced                         : No

Text
ID                             : 4
Format                         : PGS
Muxing mode                    : zlib
Codec ID                       : S_HDMV/PGS
Codec ID/Info                  : Picture based subtitle format used on BDs/HD-DVDs
Duration                       : 1 h 34 min
Bit rate                       : 14.0 kb/s
Count of elements              : 884
Stream size                    : 9.48 MiB (1%)
Title                          : GOPI SAHI
Language                       : English
Default                        : Yes
Forced                         : Yes

Menu
00:00:00.000                   : :Chapter 1
00:03:35.507                   : :Chapter 2
00:10:58.241                   : :Chapter 3
00:17:16.202                   : :Chapter 4
00:23:00.379                   : :Chapter 5
00:28:46.558                   : :Chapter 6
00:35:47.312                   : :Chapter 7
00:40:55.036                   : :Chapter 8
00:47:55.915                   : :Chapter 9
00:55:20.859                   : :Chapter 10
01:03:10.578                   : :Chapter 11
01:11:59.982                   : :Chapter 12
01:18:35.878                   : :Chapter 13
01:22:23.856                   : :Chapter 14
01:28:18.710                   : :Chapter 15
01:32:36.009                   : :Chapter 16




 MAGNET

TORRENT

TORRENT 2 ZIP FILE

GDRIVE FILE COPY

DWONLOAD AUTO START IN 20 SEC ZIP FILE


DOWNLOAD AND ONLINE DUBOX LINK = PASSWORD = uxq4

MULTIUP

MIRRORACE

MEDIAFIRE

ONLINE 720P

ONLINE 720P