Rambo Iii 1988 x264 720p Esub BluRay Dual Audio English Hindi THE GOPI SAHI

Rambo III (1988)

 
 
Rambo mounts a one-man mission to rescue his friend Colonel Trautman from the clutches of the formidable invading Soviet forces in Afghanistan.
EN

Director:

Peter MacDonald

Writers:

David Morrell (characters), Sylvester Stallone | 1 more credit »
 
5.8/10
123,636

 

Directed byPeter MacDonald
Produced byBuzz Feitshans
Written by
Based onJohn Rambo
by David Morrell
Starring
Music byJerry Goldsmith
CinematographyJohn Stanier
Edited by
  • James Symons
  • Andrew London
  • O. Nicholas Brown
Production
company
Distributed byTriStar Pictures[1]
Release date
  • May 25, 1988 (United States)
Running time
101 minutes[2]
CountryUnited States
LanguageEnglish
Budget$58–63 million[3][4]
Box office$189 million[5]

 


 

3 Rambo III 1988 GOPI SAHI


Format                         : Matroska
Format version                 : Version 4
File size                      : 799 MiB
Duration                       : 1 h 41 min
Overall bit rate               : 1 098 kb/s
Movie name                     : Rambo III 1988 GOPI SAHI
Encoded date                   : UTC 2021-05-09 16:36:53

Video
ID                             : 1
Format                         : AVC
Format/Info                    : Advanced Video Codec
Format profile                 : [email protected]
Format settings                : CABAC / 5 Ref Frames
Format settings, CABAC         : Yes
Format settings, Reference fra : 5 frames
Codec ID                       : V_MPEG4/ISO/AVC
Duration                       : 1 h 41 min
Bit rate                       : 899 kb/s
Width                          : 1 280 pixels
Height                         : 544 pixels
Display aspect ratio           : 2.35:1
Frame rate mode                : Constant
Frame rate                     : 23.976 (24000/1001) FPS
Color space                    : YUV
Chroma subsampling             : 4:2:0
Bit depth                      : 8 bits
Scan type                      : Progressive
Bits/(Pixel*Frame)             : 0.054
Stream size                    : 654 MiB (82%)
Title                          : GOPI SAHI
Writing library                : x264 core 157 r2935 545de2f

Audio #1
ID                             : 2
Format                         : AAC LC
Format/Info                    : Advanced Audio Codec Low Complexity
Codec ID                       : A_AAC-2
Duration                       : 1 h 41 min
Bit rate                       : 96.0 kb/s
Channel(s)                     : 2 channels
Channel layout                 : L R
Sampling rate                  : 48.0 kHz
Frame rate                     : 46.875 FPS (1024 SPF)
Compression mode               : Lossy
Delay relative to video        : 364 ms
Stream size                    : 70.1 MiB (9%)
Title                          : GOPI SAHI
Language                       : Hindi
Default                        : Yes
Forced                         : No

Audio #2
ID                             : 3
Format                         : AAC LC
Format/Info                    : Advanced Audio Codec Low Complexity
Codec ID                       : A_AAC-2
Duration                       : 1 h 41 min
Bit rate                       : 96.0 kb/s
Channel(s)                     : 2 channels
Channel layout                 : L R
Sampling rate                  : 48.0 kHz
Frame rate                     : 46.875 FPS (1024 SPF)
Compression mode               : Lossy
Delay relative to video        : -21 ms
Stream size                    : 70.0 MiB (9%)
Title                          : GOPI SAHI
Language                       : English
Default                        : No
Forced                         : No

Text
ID                             : 4
Format                         : PGS
Muxing mode                    : zlib
Codec ID                       : S_HDMV/PGS
Codec ID/Info                  : Picture based subtitle format used on BDs/HD-DVDs
Duration                       : 1 h 34 min
Bit rate                       : 14.0 kb/s
Count of elements              : 940
Stream size                    : 9.42 MiB (1%)
Title                          : GOPI SAHI
Language                       : English
Default                        : Yes
Forced                         : Yes

Menu
00:00:00.000                   : :Chapter 1
00:07:19.648                   : :Chapter 2
00:14:30.995                   : :Chapter 3
00:22:08.077                   : :Chapter 4
00:27:56.341                   : :Chapter 5
00:36:20.679                   : :Chapter 6
00:42:00.143                   : :Chapter 7
00:48:49.844                   : :Chapter 8
00:55:52.683                   : :Chapter 9
01:02:10.268                   : :Chapter 10
01:09:55.608                   : :Chapter 11
01:14:44.605                   : :Chapter 12
01:19:48.659                   : :Chapter 13
01:26:27.474                   : :Chapter 14
01:33:52.919                   : :Chapter 15
01:36:22.068                   : :Chapter 16




 MAGNET

TORRENT

TORRENT 2 ZIP FILE

GDRIVE FILE COPY

DWONLOAD AUTO START IN 20 SEC ZIP FILE

DOWNLOAD AND ONLINE DUBOX LINK = PASSWORD = xwtb

MULTIUP

MIRRORACE

MEDIAFIRE

ONLINE 720P

ONLINE 720P