Rambo- Last Blood 2019 Extended x264 720p Esub BluRay Dual Audio English Hindi THE GOPI SAHI

Rambo: Last Blood (2019)

 
 
Rambo must confront his past and unearth his ruthless combat skills to exact revenge in a final mission.
EN

Director:

Adrian Grunberg (as Adrian Grünberg)

Writers:

Matthew Cirulnick (screenplay by), Sylvester Stallone (screenplay by) | 3 more credits »
 
6.1/10
85,132

 

Directed byAdrian Grünberg
Produced by
  • Avi Lerner
  • Kevin King Templeton
  • Yariv Lerner
  • Les Weldon
Screenplay by
Story by
Based onJohn Rambo
by David Morrell
Starring
Music byBrian Tyler
CinematographyBrendan Galvin
Edited by
  • Todd E. Miller
  • Carsten Kurpanek
Production
companies
Distributed byLionsgate[1]
Release date
  • September 20, 2019 (United States)
Running time
  • 89 minutes
    (US, UK, Canada)[2]
  • 101 minutes
    (International)[3]
CountryUnited States
Languages
  • English
  • Spanish
Budget$50 million[4]
Box office$91.4 million[5]

 

5 Rambo- Last Blood 2019 Extended GOPI SAHI

Format                         : Matroska
Format version                 : Version 4
File size                      : 927 MiB
Duration                       : 1 h 40 min
Overall bit rate               : 1 289 kb/s
Movie name                     : Rambo: Last Blood 2019 Extended GOPI SAHI
Encoded date                   : UTC 2021-05-09 14:03:15


Video
ID                             : 1
Format                         : AVC
Format/Info                    : Advanced Video Codec
Format profile                 : [email protected]
Format settings                : CABAC / 5 Ref Frames
Format settings, CABAC         : Yes
Format settings, Reference fra : 5 frames
Codec ID                       : V_MPEG4/ISO/AVC
Duration                       : 1 h 40 min
Bit rate                       : 899 kb/s
Width                          : 1 280 pixels
Height                         : 558 pixels
Display aspect ratio           : 2.25:1
Frame rate mode                : Constant
Frame rate                     : 23.976 (24000/1001) FPS
Color space                    : YUV
Chroma subsampling             : 4:2:0
Bit depth                      : 8 bits
Scan type                      : Progressive
Bits/(Pixel*Frame)             : 0.052
Stream size                    : 646 MiB (70%)
Title                          : GOPI SAHI
Writing library                : x264 core 157 r2935 545de2f


Audio #1
ID                             : 2
Format                         : AAC LC
Format/Info                    : Advanced Audio Codec Low Complexity
Codec ID                       : A_AAC-2
Duration                       : 1 h 40 min
Bit rate                       : 192 kb/s
Channel(s)                     : 6 channels
Channel layout                 : C L R Ls Rs LFE
Sampling rate                  : 48.0 kHz
Frame rate                     : 46.875 FPS (1024 SPF)
Compression mode               : Lossy
Delay relative to video        : -3 ms
Stream size                    : 138 MiB (15%)

Title                          : GOPI SAHI
Language                       : Hindi
Default                        : Yes
Forced                         : No


Audio #2
ID                             : 3
Format                         : AAC LC
Format/Info                    : Advanced Audio Codec Low Complexity
Codec ID                       : A_AAC-2
Duration                       : 1 h 40 min
Bit rate                       : 192 kb/s
Channel(s)                     : 6 channels
Channel layout                 : C L R Ls Rs LFE
Sampling rate                  : 48.0 kHz
Frame rate                     : 46.875 FPS (1024 SPF)
Compression mode               : Lossy
Delay relative to video        : -21 ms
Stream size                    : 138 MiB (15%)
Title                          : GOPI SAHI
Language                       : English
Default                        : No
Forced                         : No

Text
ID                             : 4
Format                         : PGS
Muxing mode                    : zlib
Codec ID                       : S_HDMV/PGS
Codec ID/Info                  : Picture based subtitle format used on BDs/HD-DVDs
Duration                       : 1 h 29 min
Bit rate                       : 12.5 kb/s
Count of elements              : 1256
Stream size                    : 7.98 MiB (1%)
Title                          : GOPI SAHI
Language                       : English
Default                        : Yes
Forced                         : Yes

Menu
00:00:00.000                   : :Chapter 1
00:08:00.105                   : :Chapter 2
00:18:19.390                   : :Chapter 3
00:29:01.240                   : :Chapter 4
00:38:06.284                   : :Chapter 5
00:44:42.597                   : :Chapter 6
00:51:34.800                   : :Chapter 7
00:59:39.367                   : :Chapter 8
01:07:53.278                   : :Chapter 9
01:14:41.102                   : :Chapter 10
01:21:38.977                   : :Chapter 11
01:29:51.344                   : :Chapter 12




MAGNET

TORRENT

TORRENT 2 ZIP FILE

GDRIVE FILE COPY

DWONLOAD AUTO START IN 20 SEC ZIP FILE

DOWNLOAD AND ONLINE DUBOX LINK = PASSWORD = mpv8

MULTIUP

MIRRORACE


MEDIAFIRE

ONLINE 720P


ONLINE 720P

 

Post a Comment

0 Comments