Rush Hour 1 1998 x264 720p Esub BluRay Dual Audio English Hindi THE GOPI SAHI

Rush Hour (1998)

PG-13 09/18/1998 (US) ActionComedyCrime 1h 38m 
 

The Fastest Hands in the East Meet the Biggest Mouth in the West.

Overview

When Hong Kong Inspector Lee is summoned to Los Angeles to investigate a kidnapping, the FBI doesn't want any outside help and assigns cocky LAPD Detective James Carter to distract Lee from the case. Not content to watch the action from the sidelines, Lee and Carter form an unlikely partnership and investigate the case themselves.

Directed byBrett Ratner
Produced by
Screenplay by
Story byRoss LaManna
Starring
Music byLalo Schifrin
CinematographyAdam Greenberg
Edited byMark Helfrich
Production
company
Distributed byNew Line Cinema[1]
Release date
  • September 18, 1998
Running time
98 minutes
CountryUnited States[2]
LanguageEnglish
Budget$33–35 million[3][4]
Box office$244.4 million[3]
 


 

Rush Hour 1 1998  x264 720p Esub BluRay Dual Audio English Hindi THE GOPI SAHI


Format                         : Matroska
Format version                 : Version 4
File size                      : 840 MiB
Duration                       : 1 h 37 min
Overall bit rate               : 1 201 kb/s
Movie name                     : Rush Hour 1998 GOPI SAHI
Encoded date                   : UTC 2020-08-19 04:01:09

Video
ID                             : 1
Format                         : AVC
Format/Info                    : Advanced Video Codec
Format profile                 : [email protected]
Format settings                : CABAC / 5 Ref Frames
Format settings, CABAC         : Yes
Format settings, Reference fra : 5 frames
Codec ID                       : V_MPEG4/ISO/AVC
Duration                       : 1 h 37 min
Bit rate                       : 899 kb/s
Width                          : 1 280 pixels
Height                         : 522 pixels
Display aspect ratio           : 2.452
Frame rate mode                : Constant
Frame rate                     : 23.976 (24000/1001) FPS
Color space                    : YUV
Chroma subsampling             : 4:2:0
Bit depth                      : 8 bits
Scan type                      : Progressive
Bits/(Pixel*Frame)             : 0.056
Stream size                    : 629 MiB (75%)
Title                          : GOPI SAHI
Writing library                : x264 core 157 r2935 545de2f

Audio #1
ID                             : 2
Format                         : AAC LC
Format/Info                    : Advanced Audio Codec Low Complexity
Codec ID                       : A_AAC-2
Duration                       : 1 h 37 min
Bit rate                       : 96.0 kb/s
Channel(s)                     : 2 channels
Channel layout                 : L R
Sampling rate                  : 48.0 kHz
Frame rate                     : 46.875 FPS (1024 SPF)
Compression mode               : Lossy
Delay relative to video        : -21 ms
Stream size                    : 67.3 MiB (8%)
Title                          : GOPI SAHI
Language                       : Hindi
Default                        : Yes
Forced                         : No

Audio #2
ID                             : 3
Format                         : AAC LC
Format/Info                    : Advanced Audio Codec Low Complexity
Codec ID                       : A_AAC-2
Duration                       : 1 h 37 min
Bit rate                       : 96.0 kb/s
Channel(s)                     : 2 channels
Channel layout                 : L R
Sampling rate                  : 48.0 kHz
Frame rate                     : 46.875 FPS (1024 SPF)
Compression mode               : Lossy
Delay relative to video        : -21 ms
Stream size                    : 67.3 MiB (8%)
Title                          : GOPI SAHI
Language                       : English
Default                        : No
Forced                         : No

Text #1
ID                             : 4
Format                         : PGS
Muxing mode                    : zlib
Codec ID                       : S_HDMV/PGS
Codec ID/Info                  : Picture based subtitle format used on BDs/HD-DVDs
Duration                       : 1 h 34 min
Bit rate                       : 30.2 kb/s
Count of elements              : 3762
Stream size                    : 20.4 MiB (2%)
Title                          : GOPI SAHI
Language                       : Hindi
Default                        : Yes
Forced                         : Yes

Text #2
ID                             : 5
Format                         : PGS
Muxing mode                    : zlib
Codec ID                       : S_HDMV/PGS
Codec ID/Info                  : Picture based subtitle format used on BDs/HD-DVDs
Duration                       : 1 h 35 min
Bit rate                       : 41.9 kb/s
Count of elements              : 2860
Stream size                    : 28.7 MiB (3%)
Title                          : GOPI SAHI
Language                       : English
Default                        : No
Forced                         : No

Text #3
ID                             : 6
Format                         : PGS
Muxing mode                    : zlib
Codec ID                       : S_HDMV/PGS
Codec ID/Info                  : Picture based subtitle format used on BDs/HD-DVDs
Duration                       : 1 h 34 min
Bit rate                       : 68.9 kb/s
Count of elements              : 3756
Stream size                    : 46.6 MiB (6%)
Title                          : GOPI SAHI
Language                       : Tamil
Default                        : No
Forced                         : No

Text #4
ID                             : 7
Format                         : PGS
Muxing mode                    : zlib
Codec ID                       : S_HDMV/PGS
Codec ID/Info                  : Picture based subtitle format used on BDs/HD-DVDs
Duration                       : 1 h 34 min
Bit rate                       : 54.7 kb/s
Count of elements              : 3762
Stream size                    : 36.9 MiB (4%)
Title                          : GOPI SAHI
Language                       : Telugu
Default                        : No
Forced                         : No

Menu
00:00:00.000                   : :Opening Credits
00:02:28.190                   : :"Where Is Juntao?"
00:04:01.992                   : :Hong Kong, 1997
00:06:11.037                   : :C4
00:09:29.069                   : :School;S Out
00:12:03.640                   : :Partners
00:15:17.083                   : :Going to the Show
00:17:11.864                   : :G-14 Classified
00:20:01.826                   : :Carter, Fbi
00:22:53.664                   : :Supercops
00:27:04.540                   : :The United States of James Carter
00:29:17.214                   : :Azteca Shakedown
00:34:39.744                   : :Quick Hands
00:35:50.732                   : :Meet Inspector Li
00:38:47.033                   : :Get Carter
00:41:35.493                   : :Pickup on Sixth Street
00:43:32.527                   : :The Detonator
00:46:49.056                   : :Practice Makes Perfect
00:48:42.503                   : :"Give Me the Name"
00:51:12.152                   : :The Foo Chow
00:54:46.074                   : :Camel's Hump
00:57:35.243                   : :One From Column B
00:59:36.406                   : :"Fight Me Like a Man"
01:02:47.847                   : :Room Service
01:06:06.045                   : :Case Closed
01:08:14.257                   : :Juntao Calls
01:10:50.329                   : :A Lesson in Honor
01:13:08.092                   : :Getting the Drop on the Drop
01:16:33.422                   : :"Juntao!"
01:18:47.389                   : :"Thank You and Good Night"
01:22:06.922                   : :Saving Vase
01:23:44.144                   : :"Meet Me on the Road"
01:25:58.737                   : :Leave Them in Stitches
01:28:01.443                   : :A Banner Night
01:29:57.475                   : :Three Little Words
01:32:10.775                   : :End Credits/Bloopers
01:35:17.003                   : :Tail Credits




 MAGNET

TORRENT

TORRENT 2 480P AND 720P CHOOSE WHICH ONE DWONLOAD

GDRIVE FILE COPY

DWONLOAD AUTO START IN 20 SEC

DOWNLOAD AND ONLINE TERABOX LINK = PASSWORD = 4gke

DWONLOAD AUTO START IN 20 SEC ZIP FILE

511 MB  HINDI 480P DWONLOAD AUTO START IN 20 SEC

MULTIUP

MIRRORACE

MEDIAFIRE


ONLINE 720P

ONLINE 720P