Rush Hour 2 2001 x264 720p Esub BluRay Dual Audio English Hindi THE GOPI SAHI

Rush Hour 2 (2001)

PG-13 08/03/2001 (US) ActionComedyCrime 1h 30m 

Get ready for a second Rush!

Overview

It's vacation time for Carter as he finds himself alongside Lee in Hong Kong wishing for more excitement. While Carter wants to party and meet the ladies, Lee is out to track down a Triad gang lord who may be responsible for killing two men at the American Embassy. Things get complicated as the pair stumble onto a counterfeiting plot. The boys are soon up to their necks in fist fights and life-threatening situations. A trip back to the U.S. may provide the answers about the bombing, the counterfeiting, and the true allegiance of sexy customs agent Isabella.

Directed byBrett Ratner
Produced byRoger Birnbaum
Jonathan Glickman
Arthur M. Sarkissian
Jay Stern
Written byJeff Nathanson
Based onCharacters
by Ross LaManna
Starring
Music byLalo Schifrin
CinematographyMatthew F. Leonetti
Edited byMark Helfrich
Production
companies
Distributed byNew Line Cinema[1]
Release date
  • August 3, 2001
Running time
90 minutes[1]
CountryUnited States[1]
Languages
  • English
  • Cantonese
  • Mandarin
Budget$90 million[2]
Box office$347.3 million[2]


Rush Hour 2 2001 x264 720p Esub BluRay Dual Audio English Hindi THE GOPI SAHI


Format                         : Matroska
Format version                 : Version 4
File size                      : 762 MiB
Duration                       : 1 h 30 min
Overall bit rate               : 1 181 kb/s
Movie name                     : Rush Hour 2 2001 GOPI SAHI
Encoded date                   : UTC 2020-08-19 04:02:16

Video
ID                             : 1
Format                         : AVC
Format/Info                    : Advanced Video Codec
Format profile                 : [email protected]
Format settings                : CABAC / 5 Ref Frames
Format settings, CABAC         : Yes
Format settings, Reference fra : 5 frames
Codec ID                       : V_MPEG4/ISO/AVC
Duration                       : 1 h 30 min
Bit rate                       : 899 kb/s
Width                          : 1 280 pixels
Height                         : 534 pixels
Display aspect ratio           : 2.40:1
Frame rate mode                : Constant
Frame rate                     : 23.976 (24000/1001) FPS
Color space                    : YUV
Chroma subsampling             : 4:2:0
Bit depth                      : 8 bits
Scan type                      : Progressive
Bits/(Pixel*Frame)             : 0.055
Stream size                    : 579 MiB (76%)
Title                          : GOPI SAHI
Writing library                : x264 core 157 r2935 545de2f

Audio #1
ID                             : 2
Format                         : AAC LC
Format/Info                    : Advanced Audio Codec Low Complexity
Codec ID                       : A_AAC-2
Duration                       : 1 h 30 min
Bit rate                       : 96.0 kb/s
Channel(s)                     : 2 channels
Channel layout                 : L R
Sampling rate                  : 48.0 kHz
Frame rate                     : 46.875 FPS (1024 SPF)
Compression mode               : Lossy
Delay relative to video        : 976 ms
Stream size                    : 62.0 MiB (8%)
Title                          : GOPI SAHI
Language                       : Hindi
Default                        : Yes
Forced                         : No

Audio #2
ID                             : 3
Format                         : AAC LC
Format/Info                    : Advanced Audio Codec Low Complexity
Codec ID                       : A_AAC-2
Duration                       : 1 h 30 min
Bit rate                       : 96.0 kb/s
Channel(s)                     : 2 channels
Channel layout                 : L R
Sampling rate                  : 48.0 kHz
Frame rate                     : 46.875 FPS (1024 SPF)
Compression mode               : Lossy
Delay relative to video        : -21 ms
Stream size                    : 62.0 MiB (8%)
Title                          : GOPI SAHI
Language                       : English
Default                        : No
Forced                         : No

Text #1
ID                             : 4
Format                         : PGS
Muxing mode                    : zlib
Codec ID                       : S_HDMV/PGS
Codec ID/Info                  : Picture based subtitle format used on BDs/HD-DVDs
Duration                       : 1 h 29 min
Bit rate                       : 38.6 kb/s
Count of elements              : 2851
Stream size                    : 24.6 MiB (3%)
Title                          : GOPI SAHI
Language                       : English
Default                        : Yes
Forced                         : Yes

Text #2
ID                             : 5
Format                         : PGS
Muxing mode                    : zlib
Codec ID                       : S_HDMV/PGS
Codec ID/Info                  : Picture based subtitle format used on BDs/HD-DVDs
Duration                       : 1 h 27 min
Bit rate                       : 68.6 kb/s
Count of elements              : 2482
Stream size                    : 42.9 MiB (6%)
Title                          : GOPI SAHI
Language                       : Tamil
Default                        : No
Forced                         : No

Text #3
ID                             : 6
Format                         : PGS
Muxing mode                    : zlib
Codec ID                       : S_HDMV/PGS
Codec ID/Info                  : Picture based subtitle format used on BDs/HD-DVDs
Duration                       : 1 h 27 min
Bit rate                       : 54.0 kb/s
Count of elements              : 2454
Stream size                    : 33.7 MiB (4%)
Title                          : GOPI SAHI
Language                       : Telugu
Default                        : No
Forced                         : No

Menu
00:00:00.000                   : :Main Titles / Deadly Delivery
00:04:37.402                   : :Triad Club
00:13:30.727                   : :Heaven On Earth
00:21:42.968                   : :"Bigger than Ricky Tan"
00:27:49.001                   : :Out to Sea
00:33:23.168                   : :Tan Overboard
00:38:50.411                   : :Follow the Rich White Man
00:47:11.245                   : :Crenshaw Kitchen
00:51:18.117                   : :Road Trip
00:58:56.450                   : :Red Dragon
01:03:52.162                   : :"Let's Play Some Craps!"
01:08:59.260                   : :An Explosive Situation
01:14:51.696                   : :Carter v. Hu Li
01:17:29.603                   : :"Just Like Your Father"
01:22:03.627                   : :Goodbye?
01:24:38.365                   : :Outtakes / End Credits




 MAGNET

TORRENT

TORRENT 2 480P AND 720P CHOOSE WHICH ONE DWONLOAD

GDRIVE FILE COPY

DWONLOAD AUTO START IN 20 SEC

DOWNLOAD AND ONLINE TERABOX LINK = PASSWORD = rczg

DWONLOAD AUTO START IN 20 SEC ZIP FILE

443 MB HINDI 480P DWONLOAD AUTO START IN 20 SEC

MULTIUP

MIRRORACE

MEDIAFIRE


ONLINE 720P

ONLINE 720P