Sandeep Aur Pinky Faraar 2021 x264 720p WebHD Esub Hindi THE GOPI SAHI

Sandeep Aur Pinky Faraar (2021)

UA 03/19/2021 (IN) ThrillerDrama 2h 6m

 

Directed byDibakar Banerjee
Produced byDibakar Banerjee
Written byDibakar Banerjee
Varun Grover
StarringParineeti Chopra
Arjun Kapoor
Music byScore:
Dibakar Banerjee
Songs:
Anu Malik
Dibakar Banerjee
Narendra Chandra
Kamlesh Haripuri
CinematographyAnil Mehta
Edited byBakul Baljeet Matiyani
Paramita Ghosh
Production
company
DBP
Distributed byYash Raj Films
Release date
  • 19 March 2021[1]
Running time
126 minutes
CountryIndia
LanguageHindi

 

 


 Sandeep Aur Pinky Faraar 2021 x264 720p WebHD Esub Hindi THE GOPI SAHI

Format                         : Matroska
Format version                 : Version 4
File size                      : 964 MiB
Duration                       : 2 h 3 min
Overall bit rate               : 1 093 kb/s
Movie name                     : Sandeep Aur Pinky Faraar 2021 GOPI SAHI
Encoded date                   : UTC 2021-05-20 02:44:37

Video
ID                             : 1
Format                         : AVC
Format/Info                    : Advanced Video Codec
Format profile                 : [email protected]
Format settings                : CABAC / 5 Ref Frames
Format settings, CABAC         : Yes
Format settings, Reference fra : 5 frames
Codec ID                       : V_MPEG4/ISO/AVC
Duration                       : 2 h 3 min
Bit rate                       : 899 kb/s
Width                          : 1 280 pixels
Height                         : 542 pixels
Display aspect ratio           : 2.35:1
Frame rate mode                : Constant
Frame rate                     : 24.000 FPS
Color space                    : YUV
Chroma subsampling             : 4:2:0
Bit depth                      : 8 bits
Scan type                      : Progressive
Bits/(Pixel*Frame)             : 0.054
Stream size                    : 792 MiB (82%)
Title                          : GOPI SAHI
Writing library                : x264 core 157 r2935 545de2f

Audio
ID                             : 2
Format                         : AAC LC
Format/Info                    : Advanced Audio Codec Low Complexity
Codec ID                       : A_AAC-2
Duration                       : 2 h 3 min
Bit rate                       : 192 kb/s
Channel(s)                     : 6 channels
Channel layout                 : C L R Ls Rs LFE
Sampling rate                  : 48.0 kHz
Frame rate                     : 46.875 FPS (1024 SPF)
Compression mode               : Lossy
Delay relative to video        : -21 ms
Stream size                    : 169 MiB (18%)
Title                          : GOPI SAHI
Language                       : Hindi
Default                        : Yes
Forced                         : No

Text
ID                             : 3
Format                         : UTF-8
Codec ID                       : S_TEXT/UTF8
Codec ID/Info                  : UTF-8 Plain Text
Duration                       : 2 h 2 min
Bit rate                       : 47 b/s
Count of elements              : 1403
Stream size                    : 42.8 KiB (0%)
Title                          : GOPI SAHI
Language                       : English
Default                        : Yes
Forced                         : No