Sardar Ka Grandson 2021 x264 720p WebHD Esub Dual Audio English Hindi THE GOPI SAHI

 

Directed byKaashvie Nair
Produced byBhushan Kumar
Divya Khosla Kumar
Krishan Kumar
Monisha Advani
Madhu Bhojwani
Nikkhil Advani
John Abraham
Written byAnuja Chauhan
Kaashvie Nair
Dialogue:
Amitosh Nagpal
Story byKaashive Nair
StarringArjun Kapoor
Rakul Preet Singh
Neena Gupta
Music byScore:
Gulraj Singh
Songs:
Tanishk Bagchi
CinematographyMahedra Shetty
Edited byMaahir Zaveri
Production
companies
Distributed byNetflix[1]
Release date
  • 18 May 2021[2]
Running time
140 minutes[3]
CountryIndia
LanguageHindi

 Sardar Ka Grandson 2021 x264 720p WebHD Esub Hindi THE GOPI SAH

 
 

Sardar Ka Grandson 2021 x264 720p WebHD Esub Hindi THE GOPI SAHI


Format                         : Matroska
Format version                 : Version 4
File size                      : 1.25 GiB
Duration                       : 2 h 19 min
Overall bit rate               : 1 284 kb/s
Movie name                     : Sardar Ka Grandson 2021 GOPI SAHI
Encoded date                   : UTC 2021-05-19 01:19:18

Video
ID                             : 1
Format                         : AVC
Format/Info                    : Advanced Video Codec
Format profile                 : [email protected]
Format settings                : CABAC / 5 Ref Frames
Format settings, CABAC         : Yes
Format settings, Reference fra : 5 frames
Codec ID                       : V_MPEG4/ISO/AVC
Duration                       : 2 h 19 min
Bit rate                       : 899 kb/s
Width                          : 1 280 pixels
Height                         : 544 pixels
Display aspect ratio           : 2.35:1
Frame rate mode                : Constant
Frame rate                     : 24.000 FPS
Color space                    : YUV
Chroma subsampling             : 4:2:0
Bit depth                      : 8 bits
Scan type                      : Progressive
Bits/(Pixel*Frame)             : 0.054
Stream size                    : 897 MiB (70%)
Title                          : GOPI SAHI
Writing library                : x264 core 157 r2935 545de2f

Audio #1
ID                             : 2
Format                         : AAC LC
Format/Info                    : Advanced Audio Codec Low Complexity
Codec ID                       : A_AAC-2
Duration                       : 2 h 19 min
Bit rate                       : 192 kb/s
Channel(s)                     : 6 channels
Channel layout                 : C L R Ls Rs LFE
Sampling rate                  : 48.0 kHz
Frame rate                     : 46.875 FPS (1024 SPF)
Compression mode               : Lossy
Delay relative to video        : -21 ms
Stream size                    : 191 MiB (15%)
Title                          : GOPI SAHI
Language                       : Hindi
Default                        : Yes
Forced                         : No

Audio #2
ID                             : 3
Format                         : AAC LC
Format/Info                    : Advanced Audio Codec Low Complexity
Codec ID                       : A_AAC-2
Duration                       : 2 h 19 min
Bit rate                       : 192 kb/s
Channel(s)                     : 6 channels
Channel layout                 : C L R Ls Rs LFE
Sampling rate                  : 48.0 kHz
Frame rate                     : 46.875 FPS (1024 SPF)
Compression mode               : Lossy
Delay relative to video        : -21 ms
Stream size                    : 191 MiB (15%)
Title                          : GOPI SAHI
Language                       : English
Default                        : No
Forced                         : No

Text
Language                       : English





Post a Comment

0 Comments