Saving Private Ryan 1998 x264 720p Esub BluRay Dual Audio English Hindi THE GOPI SAHI

Saving Private Ryan (1998)

R 07/24/1998 (US) DramaHistoryWar 2h 49m 

The mission is a man.

Overview

As U.S. troops storm the beaches of Normandy, three brothers lie dead on the battlefield, with a fourth trapped behind enemy lines. Ranger captain John Miller and seven men are tasked with penetrating German-held territory and bringing the boy home.

Directed bySteven Spielberg
Produced by
Written byRobert Rodat
Starring
Music byJohn Williams
CinematographyJanusz Kamiński
Edited byMichael Kahn
Production
companies
Distributed by
Release date
  • July 24, 1998
Running time
169 minutes
CountryUnited States
LanguageEnglish
Budget$70 million[1]
Box office$482.3 million[1]


Saving Private Ryan 1998 x264 720p Esub BluRay Dual Audio English Hindi THE GOPI SAHI


Format                         : Matroska
Format version                 : Version 4
File size                      : 1.52 GiB
Duration                       : 2 h 48 min
Overall bit rate               : 1 293 kb/s
Movie name                     : Saving Private Ryan 1998 GOPI SAHI
Encoded date                   : UTC 2021-05-28 15:31:04

Video
ID                             : 1
Format                         : AVC
Format/Info                    : Advanced Video Codec
Format profile                 : [email protected]
Format settings                : CABAC / 5 Ref Frames
Format settings, CABAC         : Yes
Format settings, Reference fra : 5 frames
Codec ID                       : V_MPEG4/ISO/AVC
Duration                       : 2 h 48 min
Bit rate                       : 899 kb/s
Width                          : 1 280 pixels
Height                         : 694 pixels
Display aspect ratio           : 1.85:1
Frame rate mode                : Constant
Frame rate                     : 23.976 (24000/1001) FPS
Color space                    : YUV
Chroma subsampling             : 4:2:0
Bit depth                      : 8 bits
Scan type                      : Progressive
Bits/(Pixel*Frame)             : 0.042
Stream size                    : 1.06 GiB (69%)
Title                          : GOPI SAHI
Writing library                : x264 core 157 r2935 545de2f

Audio #1
ID                             : 2
Format                         : AAC LC
Format/Info                    : Advanced Audio Codec Low Complexity
Codec ID                       : A_AAC-2
Duration                       : 2 h 48 min
Bit rate                       : 192 kb/s
Channel(s)                     : 6 channels
Channel layout                 : C L R Ls Rs LFE
Sampling rate                  : 48.0 kHz
Frame rate                     : 46.875 FPS (1024 SPF)
Compression mode               : Lossy
Stream size                    : 232 MiB (15%)
Title                          : GOPI SAHI
Language                       : Hindi
Default                        : Yes
Forced                         : No

Audio #2
ID                             : 3
Format                         : AAC LC
Format/Info                    : Advanced Audio Codec Low Complexity
Codec ID                       : A_AAC-2
Duration                       : 2 h 48 min
Bit rate                       : 192 kb/s
Channel(s)                     : 6 channels
Channel layout                 : C L R Ls Rs LFE
Sampling rate                  : 48.0 kHz
Frame rate                     : 46.875 FPS (1024 SPF)
Compression mode               : Lossy
Stream size                    : 232 MiB (15%)
Title                          : GOPI SAHI
Language                       : English
Default                        : No
Forced                         : No

Text
ID                             : 4
Format                         : PGS
Muxing mode                    : zlib
Codec ID                       : S_HDMV/PGS
Codec ID/Info                  : Picture based subtitle format used on BDs/HD-DVDs
Duration                       : 2 h 45 min
Bit rate                       : 32.7 kb/s
Count of elements              : 3364
Stream size                    : 38.6 MiB (2%)
Title                          : GOPI SAHI
Language                       : English
Default                        : Yes
Forced                         : Yes

Menu
00:00:00.000                   : :Chapter 1
00:04:30.771                   : :Chapter 2
00:13:47.160                   : :Chapter 3
00:18:56.719                   : :Chapter 4
00:26:53.070                   : :Chapter 5
00:36:11.961                   : :Chapter 6
00:45:47.578                   : :Chapter 7
00:57:39.539                   : :Chapter 8
01:05:26.923                   : :Chapter 9
01:13:45.671                   : :Chapter 10
01:17:42.158                   : :Chapter 11
01:23:05.606                   : :Chapter 12
01:35:29.933                   : :Chapter 13
01:46:43.397                   : :Chapter 14
01:59:35.543                   : :Chapter 15
02:07:25.513                   : :Chapter 16
02:17:12.057                   : :Chapter 17
02:26:54.514                   : :Chapter 18
02:32:42.820                   : :Chapter 19
02:42:39.291                   : :Chapter 20




MAGNET

TORRENT


TORRENT 2 480P AND 720P CHOOSE WHICH ONE DWONLOAD

GDRIVE FILE COPY

DWONLOAD AUTO START IN 20 SEC

DOWNLOAD AND ONLINE TERABOX LINK = PASSWORD = 5wn2

DWONLOAD AUTO START IN 20 SEC ZIP FILE

961 MB HINDI 480P DWONLOAD AUTO START IN 20 SEC


MULTIUP

MIRRORACE


MEDIAFIRE

ONLINE 720P

ONLINE 720P