Source Code 2011 x264 720p Esub BluRay Dual Audio English Hindi THE GOPI SAHI

Source Code (2011)

PG-13 | | Action, Drama, Mystery | 1 April 2011 (USA)
 
 
A soldier wakes up in someone else's body and discovers he's part of an experimental government program to find the bomber of a commuter train within 8 minutes.
EN

Director:

Duncan Jones

Writer:

Ben Ripley
 
 
7.5/10
490,170

Directed byDuncan Jones
Produced by
Written byBen Ripley
Starring
Music byChris Bacon
CinematographyDon Burgess
Edited byPaul Hirsch
Production
companies
Distributed bySummit Entertainment
Release date
  • March 11, 2011 (SXSW)
  • April 1, 2011 (United States)
  • April 20, 2011 (France)
Running time
93 minutes
Countries
LanguageEnglish
Budget$31.9 million[2]
Box office$147.3 million[3]

 

Source Code 2011 x264 720p Esub BluRay Dual Audio English Hindi THE GOPI SAHI


Format                         : Matroska
Format version                 : Version 4
File size                      : 862 MiB
Duration                       : 1 h 33 min
Overall bit rate               : 1 294 kb/s
Movie name                     : Source Code 2011 GOPI SAHI
Encoded date                   : UTC 2021-05-06 04:47:52
Writing application            : mkvmerge v56.1.0 ('My Friend') 64-bit
Writing library                : libebml v1.4.2 + libmatroska v1.6.4

Video
ID                             : 1
Format                         : AVC
Format/Info                    : Advanced Video Codec
Format profile                 : [email protected]
Format settings                : CABAC / 5 Ref Frames
Format settings, CABAC         : Yes
Format settings, Reference fra : 5 frames
Codec ID                       : V_MPEG4/ISO/AVC
Duration                       : 1 h 33 min
Bit rate                       : 899 kb/s
Width                          : 1 280 pixels
Height                         : 720 pixels
Display aspect ratio           : 16:9
Frame rate mode                : Constant
Frame rate                     : 24.000 FPS
Color space                    : YUV
Chroma subsampling             : 4:2:0
Bit depth                      : 8 bits
Scan type                      : Progressive
Bits/(Pixel*Frame)             : 0.041
Stream size                    : 598 MiB (69%)
Title                          : GOPI SAHI
Writing library                : x264 core 157 r2935 545de2f

Audio #1
ID                             : 2
Format                         : AAC LC
Format/Info                    : Advanced Audio Codec Low Complexity
Codec ID                       : A_AAC-2
Duration                       : 1 h 32 min
Bit rate                       : 192 kb/s
Channel(s)                     : 6 channels
Channel layout                 : C L R Ls Rs LFE
Sampling rate                  : 48.0 kHz
Frame rate                     : 46.875 FPS (1024 SPF)
Compression mode               : Lossy
Delay relative to video        : 19 s 113 ms
Stream size                    : 127 MiB (15%)
Title                          : GOPI SAHI
Language                       : Hindi
Default                        : Yes
Forced                         : No

Audio #2
ID                             : 3
Format                         : AAC LC
Format/Info                    : Advanced Audio Codec Low Complexity
Codec ID                       : A_AAC-2
Duration                       : 1 h 33 min
Bit rate                       : 192 kb/s
Channel(s)                     : 6 channels
Channel layout                 : C L R Ls Rs LFE
Sampling rate                  : 48.0 kHz
Frame rate                     : 46.875 FPS (1024 SPF)
Compression mode               : Lossy
Delay relative to video        : -21 ms
Stream size                    : 128 MiB (15%)
Title                          : GOPI SAHI
Language                       : English
Default                        : No
Forced                         : No

Text
ID                             : 4
Format                         : PGS
Muxing mode                    : zlib
Codec ID                       : S_HDMV/PGS
Codec ID/Info                  : Picture based subtitle format used on BDs/HD-DVDs
Duration                       : 1 h 24 min
Bit rate                       : 31.1 kb/s
Count of elements              : 2455
Stream size                    : 18.7 MiB (2%)
Title                          : GOPI SAHI
Language                       : English
Default                        : Yes
Forced                         : No

Menu
00:00:00.000                   : :Chapter 1
00:06:52.667                   : :Chapter 2
00:14:10.958                   : :Chapter 3
00:21:05.417                   : :Chapter 4
00:28:36.833                   : :Chapter 5
00:36:19.917                   : :Chapter 6
00:47:21.875                   : :Chapter 7
00:53:06.333                   : :Chapter 8
01:03:02.417                   : :Chapter 9
01:09:40.042                   : :Chapter 10
01:15:27.125                   : :Chapter 11
01:23:08.750                   : :Chapter 12

 

MAGNET

TORRENT

TORRENT 2 ZIP FILE

GDRIVE FILE COPY

DWONLOAD AUTO START IN 20 SEC ZIP FILE


DOWNLOAD AND ONLINE DUBOX LINK = PASSWORD = 7xjb

MULTIUP

MIRRORACE


MEDIAFIRE

ONLINE 720P

ONLINE 720P


Post a Comment

0 Comments