Spawn 1997 x264 720p BluRay Dual Audio English Hindi THE GOPI SAHI

Spawn (1997)

PG-13 | | Action, Drama, Horror | 1 August 1997 (USA)
 
 
An elite mercenary is killed, but comes back from Hell as a reluctant soldier of the Devil.
EN

Director:

Mark A.Z. Dippé

Writers:

Todd McFarlane (comic book), Alan B. McElroy (screen story) (as Alan McElroy) | 2 more credits »
 
5.3/10
64,697
Directed byMark A.Z. Dippé
Produced byClint Goldman
Screenplay byAlan B. McElroy
Story by
  • Alan B. McElroy
  • Mark A.Z. Dippé
Based on
Starring
Music byGraeme Revell
CinematographyGuillermo Navarro
Edited by
  • Rick Shaine
  • Michael N. Knue
  • Todd Busch
Production
company
Dippe Goldman Williams[1]
Distributed by
Release date
  • August 1, 1997
Running time
96 minutes[2]
CountryUnited States
LanguageEnglish
Budget$40–45 million[3][4]
Box office$87.9 million[5]

 

 


Spawn 1997 x264 720p BluRay Dual Audio English Hindi THE GOPI SAHI


Format                         : Matroska
Format version                 : Version 4
File size                      : 754 MiB
Duration                       : 1 h 36 min
Overall bit rate               : 1 094 kb/s
Movie name                     : Spawn 1997 GOPI SAHI
Encoded date                   : UTC 2021-05-09 01:26:01

Video
ID                             : 1
Format                         : AVC
Format/Info                    : Advanced Video Codec
Format profile                 : [email protected]
Format settings                : CABAC / 5 Ref Frames
Format settings, CABAC         : Yes
Format settings, Reference fra : 5 frames
Codec ID                       : V_MPEG4/ISO/AVC
Duration                       : 1 h 36 min
Bit rate                       : 899 kb/s
Width                          : 1 280 pixels
Height                         : 696 pixels
Display aspect ratio           : 1.85:1
Frame rate mode                : Constant
Frame rate                     : 23.976 (24000/1001) FPS
Color space                    : YUV
Chroma subsampling             : 4:2:0
Bit depth                      : 8 bits
Scan type                      : Progressive
Bits/(Pixel*Frame)             : 0.042
Stream size                    : 620 MiB (82%)
Title                          : GOPI SAHI
Writing library                : x264 core 157 r2935 545de2f

Audio #1
ID                             : 2
Format                         : AAC LC
Format/Info                    : Advanced Audio Codec Low Complexity
Codec ID                       : A_AAC-2
Duration                       : 1 h 35 min
Bit rate                       : 96.0 kb/s
Channel(s)                     : 2 channels
Channel layout                 : L R
Sampling rate                  : 44.1 kHz
Frame rate                     : 43.066 FPS (1024 SPF)
Compression mode               : Lossy
Delay relative to video        : -106 ms
Stream size                    : 66.1 MiB (9%)
Title                          : GOPI SAHI
Language                       : Hindi
Default                        : Yes
Forced                         : No

Audio #2
ID                             : 3
Format                         : AAC LC
Format/Info                    : Advanced Audio Codec Low Complexity
Codec ID                       : A_AAC-2
Duration                       : 1 h 36 min
Bit rate                       : 96.0 kb/s
Channel(s)                     : 2 channels
Channel layout                 : L R
Sampling rate                  : 48.0 kHz
Frame rate                     : 46.875 FPS (1024 SPF)
Compression mode               : Lossy
Delay relative to video        : -83 ms
Stream size                    : 66.5 MiB (9%)
Title                          : GOPI SAHI
Language                       : English
Default                        : No
Forced                         : No

 




 

Post a Comment

2 Comments

  1. PLZZ give download link in telegram because torrent not working

    ReplyDelete

No Except Any Movie Request Here,Try To Donate Money For Website Then Request, If You No Donate Way Post Request Here ,Nonprofit Services, No Ads, No Any Earning, If Download Link Not Work Post a Comment On Movie Page For Re-upload, Post a Comment On Any Movie Page If You Donate For This Website, Thanks Keep Support. Any Torrent-Magnet Not Reseed,Seed Only First 30 Days,Then Use Google Drive For Download.