Spirited Away 2001 x264 720p Esub BluRay Dual Audio Japanese Hindi THE GOPI SAHI

Spirited Away (2001)

Sen to Chihiro no kamikakushi (original title)
 
 
During her family's move to the suburbs, a sullen 10-year-old girl wanders into a world ruled by gods, witches, and spirits, and where humans are changed into beasts.
EN

Director:

Hayao Miyazaki

Writer:

Hayao Miyazaki
 
8.6/10
669,166
Japanese千と千尋の神隠し
HepburnSen to Chihiro no Kamikakushi
Directed byHayao Miyazaki
Produced byToshio Suzuki
Written byHayao Miyazaki
Starring
Music byJoe Hisaishi
CinematographyAtsushi Okui
Edited byTakeshi Seyama
Production
company
Distributed byToho
Release date
  • July 20, 2001 (Japan)

  • December 20, 2002 (United States)
Running time
125 minutes[1]
CountryJapan
LanguageJapanese
Budget¥1.9–2 billion
($15–19.2 million)[2][3][4]
Box office$383.4 million[5]

 


Spirited Away 2001 x264 720p Esub BluRay Dual Audio Japanese Hindi THE GOPI SAHI


Format                         : Matroska
Format version                 : Version 4
File size                      : 1.04 GiB
Duration                       : 2 h 4 min
Overall bit rate               : 1 191 kb/s
Movie name                     : Spirited Away 2001 GOPI SAHI
Encoded date                   : UTC 2021-05-14 00:58:32

Video
ID                             : 1
Format                         : AVC
Format/Info                    : Advanced Video Codec
Format profile                 : [email protected]
Format settings                : CABAC / 5 Ref Frames
Format settings, CABAC         : Yes
Format settings, Reference fra : 5 frames
Codec ID                       : V_MPEG4/ISO/AVC
Duration                       : 2 h 4 min
Bit rate                       : 899 kb/s
Width                          : 1 280 pixels
Height                         : 692 pixels
Display aspect ratio           : 1.85:1
Frame rate mode                : Constant
Frame rate                     : 23.976 (24000/1001) FPS
Color space                    : YUV
Chroma subsampling             : 4:2:0
Bit depth                      : 8 bits
Scan type                      : Progressive
Bits/(Pixel*Frame)             : 0.042
Stream size                    : 801 MiB (75%)
Title                          : GOPI SAHI

Audio #1
ID                             : 2
Format                         : AAC LC
Format/Info                    : Advanced Audio Codec Low Complexity
Codec ID                       : A_AAC-2
Duration                       : 2 h 4 min
Bit rate                       : 192 kb/s
Channel(s)                     : 6 channels
Channel layout                 : C L R Ls Rs LFE
Sampling rate                  : 48.0 kHz
Frame rate                     : 46.875 FPS (1024 SPF)
Compression mode               : Lossy
Delay relative to video        : -21 ms
Stream size                    : 171 MiB (16%)
Title                          : GOPI SAHI
Language                       : Hindi
Default                        : Yes
Forced                         : No

Audio #2
ID                             : 3
Format                         : AAC LC
Format/Info                    : Advanced Audio Codec Low Complexity
Codec ID                       : A_AAC-2
Duration                       : 2 h 4 min
Bit rate                       : 96.0 kb/s
Channel(s)                     : 2 channels
Channel layout                 : L R
Sampling rate                  : 48.0 kHz
Frame rate                     : 46.875 FPS (1024 SPF)
Compression mode               : Lossy
Delay relative to video        : -12 ms
Stream size                    : 85.9 MiB (8%)
Title                          : GOPI SAHI
Language                       : Japanese
Default                        : No
Forced                         : No

Text
ID                             : 4
Format                         : UTF-8
Codec ID                       : S_TEXT/UTF8
Codec ID/Info                  : UTF-8 Plain Text
Duration                       : 2 h 4 min
Bit rate                       : 31 b/s
Count of elements              : 1092
Stream size                    : 28.5 KiB (0%)
Title                          : GOPI SAHI
Language                       : English
Default                        : Yes
Forced                         : No

Menu
00:00:00.000                   : :00:00:00.000
00:01:39.224                   : :00:01:39.099
00:03:16.279                   : :00:03:16.238
00:07:23.526                   : :00:07:23.526
00:10:45.395                   : :00:10:45.395
00:17:03.064                   : :00:17:03.022
00:22:48.534                   : :00:22:48.534
00:28:36.048                   : :00:28:36.048
00:33:28.173                   : :00:33:28.173
00:38:21.674                   : :00:38:21.674
00:44:11.816                   : :00:44:11.816
00:48:26.987                   : :00:48:26.821
00:54:31.351                   : :00:54:31.351
01:02:09.017                   : :01:02:09.017
01:08:11.588                   : :01:08:11.587
01:14:36.889                   : :01:14:36.847
01:19:10.579                   : :01:19:10.579
01:25:39.885                   : :01:25:39.760
01:31:18.890                   : :01:31:18.890
01:37:33.806                   : :01:37:33.806
01:45:18.938                   : :01:45:18.937
01:50:25.119                   : :01:50:25.118
01:52:51.223                   : :01:52:51.098
01:55:14.282                   : :01:55:14.199
02:00:53.621                   : :02:00:53.580
 




 

 MAGNET

TORRENT

TORRENT 2 


GDRIVE FILE COPY


DWONLOAD AUTO START IN 20 SEC


DOWNLOAD AND ONLINE TERABOX LINK = PASSWORD = xmx5

MULTIUP

MIRRORACE

MEDIAFIRE

ONLINE 720P

ONLINE 720P


Post a Comment

0 Comments