Stardust 2007 x264 720p Esub BluRay Dual Audio English Hindi THE GOPI SAHI

Stardust (2007)

PG-13 08/10/2007 (US) AdventureFantasyRomanceFamily 2h 7m

This Summer A Star Falls. The Chase Begins.

Overview

In a countryside town bordering on a magical land, a young man makes a promise to his beloved that he'll retrieve a fallen star by venturing into the magical realm. His journey takes him into a world beyond his wildest dreams and reveals his true identity.

Directed byMatthew Vaughn
Produced by
Screenplay by
Based onStardust
by Neil Gaiman
Starring
Music byIlan Eshkeri
CinematographyBen Davis
Edited byJon Harris
Production
companies
Distributed byParamount Pictur
Release date
  • 10 August 2007 (United States)
  • 19 October 2007 (United Kingdom)
Running time
128 minutes[1]
Countries
  • United States
  • United Kingdom
LanguageEnglish
Budget$70–88.5 million[2][3]
Box office$137 million[4]
 

 

 

 

Stardust 2007 x264 720p Esub BluRay Dual Audio English Hindi THE GOPI SAHI

Format                         : Matroska
Format version                 : Version 4
File size                      : 1.15 GiB
Duration                       : 2 h 8 min
Overall bit rate               : 1 288 kb/s
Movie name                     : Stardust 2007 GOPI SAHI
Encoded date                   : UTC 2021-05-28 03:01:54

Video
ID                             : 1
Format                         : AVC
Format/Info                    : Advanced Video Codec
Format profile                 : [email protected]
Format settings                : CABAC / 5 Ref Frames
Format settings, CABAC         : Yes
Format settings, Reference fra : 5 frames
Codec ID                       : V_MPEG4/ISO/AVC
Duration                       : 2 h 7 min
Bit rate                       : 899 kb/s
Width                          : 1 280 pixels
Height                         : 532 pixels
Display aspect ratio           : 2.40:1
Frame rate mode                : Constant
Frame rate                     : 23.976 (24000/1001) FPS
Color space                    : YUV
Chroma subsampling             : 4:2:0
Bit depth                      : 8 bits
Scan type                      : Progressive
Bits/(Pixel*Frame)             : 0.055
Stream size                    : 821 MiB (69%)
Title                          : GOPI SAHI
Writing library                : x264 core 157 r2935 545de2f

Audio #1
ID                             : 2
Format                         : AAC LC
Format/Info                    : Advanced Audio Codec Low Complexity
Codec ID                       : A_AAC-2
Duration                       : 2 h 8 min
Bit rate                       : 192 kb/s
Channel(s)                     : 6 channels
Channel layout                 : C L R Ls Rs LFE
Sampling rate                  : 48.0 kHz
Frame rate                     : 46.875 FPS (1024 SPF)
Compression mode               : Lossy
Delay relative to video        : 937 ms
Stream size                    : 176 MiB (15%)
Title                          : GOPI SAHI
Language                       : Hindi
Default                        : Yes
Forced                         : No

Audio #2
ID                             : 3
Format                         : AAC LC
Format/Info                    : Advanced Audio Codec Low Complexity
Codec ID                       : A_AAC-2
Duration                       : 2 h 7 min
Bit rate                       : 192 kb/s
Channel(s)                     : 6 channels
Channel layout                 : C L R Ls Rs LFE
Sampling rate                  : 48.0 kHz
Frame rate                     : 46.875 FPS (1024 SPF)
Compression mode               : Lossy
Delay relative to video        : -21 ms
Stream size                    : 176 MiB (15%)
Title                          : GOPI SAHI
Language                       : English
Default                        : No
Forced                         : No

Text #1
ID                             : 4
Format                         : PGS
Muxing mode                    : zlib
Codec ID                       : S_HDMV/PGS
Codec ID/Info                  : Picture based subtitle format used on BDs/HD-DVDs
Duration                       : 2 h 6 min
Bit rate                       : 98 b/s
Count of elements              : 16
Stream size                    : 91.2 KiB (0%)
Title                          : GOPI SAHI
Language                       : Hindi
Default                        : Yes
Forced                         : Yes

Text #2
ID                             : 5
Format                         : PGS
Muxing mode                    : zlib
Codec ID                       : S_HDMV/PGS
Codec ID/Info                  : Picture based subtitle format used on BDs/HD-DVDs
Duration                       : 2 h 0 min
Bit rate                       : 31.9 kb/s
Count of elements              : 2442
Stream size                    : 27.4 MiB (2%)
Title                          : GOPI SAHI
Language                       : English
Default                        : No
Forced                         : No

Menu
00:00:00.000                   : :Chapter 1
00:07:29.157                   : :Chapter 2
00:16:00.084                   : :Chapter 3
00:23:14.727                   : :Chapter 4
00:30:02.759                   : :Chapter 5
00:38:16.461                   : :Chapter 6
00:44:41.596                   : :Chapter 7
00:51:02.101                   : :Chapter 8
00:56:46.111                   : :Chapter 9
01:04:10.847                   : :Chapter 10
01:11:55.269                   : :Chapter 11
01:18:28.078                   : :Chapter 12
01:25:06.476                   : :Chapter 13
01:33:36.194                   : :Chapter 14
01:42:08.372                   : :Chapter 15
01:49:02.578                   : :Chapter 16
01:55:44.729                   : :Chapter 17
02:00:49.617                   : :Chapter 18




MAGNET

TORRENT

TORRENT 2 480P AND 720P CHOOSE WHICH ONE DWONLOAD

GDRIVE FILE COPY

DWONLOAD AUTO START IN 20 SEC

DOWNLOAD AND ONLINE TERABOX LINK = PASSWORD = wrj3

DWONLOAD AUTO START IN 20 SEC ZIP FILE

724 MB HINDI 480P DWONLOAD AUTO START IN 20 SEC

MULTIUP

MIRRORACE

MEDIAFIRE

ONLINE 720P

ONLINE 720P


Post a Comment

0 Comments