Step Up 2- The Streets 2008 x264 720p Esub BluRay Dual Audio English Hindi THE GOPI SAHI

Step Up 2: The Streets (2008)

PG-13 02/14/2008 (US) MusicDramaRomance 1h 38m 
 

It's not where you're from. It's where you're at.

Overview

When rebellious street dancer Andie lands at the elite Maryland School of the Arts, she finds herself fighting to fit in while also trying to hold onto her old life. When she joins forces with the schools hottest dancer, Chase, to form a crew of classmate outcasts to compete in Baltimore s underground dance battle The Streets.

Directed byJon M. Chu
Produced by
Written by
Based onCharacters
by Duane Adler
Starring
Music byAaron Zigman
CinematographyMax Malkin
Edited by
  • Andrew Marcus
  • Nicholas Erasmus
Production
companies
Distributed byWalt Disney Studios
Motion Pictures
Release date
  • February 14, 2008
Running time
98 minutes
CountryUnited States
LanguageEnglish
Budget$17.5 million[1]
Box office$150.8 million[2]


Step Up 2- The Streets 2008 x264 720p Esub BluRay Dual Audio English Hindi THE GOPI SAHI

Format                         : Matroska
Format version                 : Version 4
File size                      : 772 MiB
Duration                       : 1 h 37 min
Overall bit rate               : 1 103 kb/s
Movie name                     : Step Up 2- The Streets 2008 GOPISAHI
Encoded date                   : UTC 2019-11-10 14:22:21
Writing application            : mkvmerge v35.0.0 ('All The Love In The World') 64-bit
Writing library                : libebml v1.3.9 + libmatroska v1.5.2
Attachments                    : RONIN.jpg

Video
ID                             : 1
Format                         : AVC
Format/Info                    : Advanced Video Codec
Format profile                 : [email protected]
Format settings                : CABAC / 12 Ref Frames
Format settings, CABAC         : Yes
Format settings, Reference fra : 12 frames
Codec ID                       : V_MPEG4/ISO/AVC
Duration                       : 1 h 37 min
Bit rate                       : 899 kb/s
Width                          : 1 280 pixels
Height                         : 534 pixels
Display aspect ratio           : 2.40:1
Frame rate mode                : Constant
Frame rate                     : 23.976 (24000/1001) FPS
Color space                    : YUV
Chroma subsampling             : 4:2:0
Bit depth                      : 8 bits
Scan type                      : Progressive
Bits/(Pixel*Frame)             : 0.055
Stream size                    : 629 MiB (81%)
Title                          : GOPISAHI
Writing library                : x264 core 157 r2935 545de2f

Audio #1
ID                             : 2
Format                         : AAC LC
Format/Info                    : Advanced Audio Codec Low Complexity
Codec ID                       : A_AAC-2
Duration                       : 1 h 37 min
Bit rate                       : 96.0 kb/s
Channel(s)                     : 2 channels
Channel layout                 : L R
Sampling rate                  : 48.0 kHz
Frame rate                     : 46.875 FPS (1024 SPF)
Compression mode               : Lossy
Delay relative to video        : -26 ms
Stream size                    : 67.2 MiB (9%)
Title                          : GOPISAHI
Language                       : Hindi
Default                        : Yes
Forced                         : No

Audio #2
ID                             : 3
Format                         : AAC LC
Format/Info                    : Advanced Audio Codec Low Complexity
Codec ID                       : A_AAC-2
Duration                       : 1 h 37 min
Bit rate                       : 96.0 kb/s
Channel(s)                     : 2 channels
Channel layout                 : L R
Sampling rate                  : 48.0 kHz
Frame rate                     : 46.875 FPS (1024 SPF)
Compression mode               : Lossy
Delay relative to video        : -26 ms
Stream size                    : 67.2 MiB (9%)
Title                          : GOPISAHI
Language                       : English
Default                        : No
Forced                         : No

Text
ID                             : 4
Format                         : PGS
Muxing mode                    : zlib
Codec ID                       : S_HDMV/PGS
Codec ID/Info                  : Picture based subtitle format used on BDs/HD-DVDs
Duration                       : 1 h 35 min
Bit rate                       : 26.2 kb/s
Count of elements              : 2331
Stream size                    : 17.9 MiB (2%)
Title                          : GOPISAHI
Language                       : English
Default                        : Yes
Forced                         : No

Menu
00:00:00.000                   : :Opening
00:01:44.104                   : :The 410 Crew
00:07:49.803                   : :Battle With Royalty
00:14:58.231                   : :The Audition
00:19:07.146                   : :New School, New Friends
00:27:24.309                   : :Special Attention
00:38:06.951                   : :"MSA After Hours"
00:48:15.559                   : :MSA Crew Prank
01:01:41.031                   : :"It's Over"
01:11:35.625                   : :Fundraiser vs. The Streets
01:21:18.207                   : :Back to the Streets
01:31:26.815                   : :End Credits





 MAGNET

TORRENT

TORRENT 2 480P AND 720P CHOOSE WHICH ONE DWONLOAD

GDRIVE FILE COPY

DWONLOAD AUTO START IN 20 SEC

DOWNLOAD AND ONLINE TERABOX LINK = PASSWORD = r5ac

558 MB HINDI 480P DWONLOAD AUTO START IN 20 SEC

MULTIUP

MIRRORACE


MEDIAFIRE

DWNLOAD AND ONLINE


ONLINE 720P