Step Up 3D 2010 x264 720p Esub BluRay Dual Audio English Hindi THE GOPI SAHI

Step Up 3D (2010)

PG-13 08/06/2010 (US) DramaRomance 1h 47m 
 

Two Worlds. One Dream.

Overview

A tight-knit group of New York City street dancers, including Luke and Natalie, team up with NYU freshman Moose, and find themselves pitted against the world's best hip hop dancers in a high-stakes showdown that will change their lives forever.

Directed byJon M. Chu
Produced by
Written by
  • Amy Andelson
  • Emily Meyer
Based onCharacters
by Duane Adler
Starring
Music byBear McCreary[1]
CinematographyKen Seng
Edited byAndrew Marcus
Production
companies
Distributed byWalt Disney Studios
Motion Pictures
[3]
Release date
Running time
107 minutes
CountryUnited States
LanguageEnglish
Budget$30 million[4]
Box office$159.2 million[4]

 


Step Up 3D 2010 x264 720p Esub BluRay Dual Audio English Hindi THE GOPI SAHI

Format                         : Matroska
Format version                 : Version 4
File size                      : 848 MiB
Duration                       : 1 h 47 min
Overall bit rate               : 1 106 kb/s
Movie name                     : Step Up 3D 2010 GOPISAHI
Encoded date                   : UTC 2019-11-10 14:23:11
Writing application            : mkvmerge v35.0.0 ('All The Love In The World') 64-bit
Writing library                : libebml v1.3.9 + libmatroska v1.5.2
Attachments                    : RONIN.jpg

Video
ID                             : 1
Format                         : AVC
Format/Info                    : Advanced Video Codec
Format profile                 : [email protected]
Format settings                : CABAC / 12 Ref Frames
Format settings, CABAC         : Yes
Format settings, Reference fra : 12 frames
Codec ID                       : V_MPEG4/ISO/AVC
Duration                       : 1 h 47 min
Bit rate                       : 899 kb/s
Width                          : 1 280 pixels
Height                         : 534 pixels
Display aspect ratio           : 2.40:1
Frame rate mode                : Constant
Frame rate                     : 23.976 (24000/1001) FPS
Color space                    : YUV
Chroma subsampling             : 4:2:0
Bit depth                      : 8 bits
Scan type                      : Progressive
Bits/(Pixel*Frame)             : 0.055
Stream size                    : 689 MiB (81%)
Title                          : GOPISAHI
Writing library                : x264 core 157 r2935 545de2f

Audio #1
ID                             : 2
Format                         : AAC LC
Format/Info                    : Advanced Audio Codec Low Complexity
Codec ID                       : A_AAC-2
Duration                       : 1 h 47 min
Bit rate                       : 96.0 kb/s
Channel(s)                     : 2 channels
Channel layout                 : L R
Sampling rate                  : 48.0 kHz
Frame rate                     : 46.875 FPS (1024 SPF)
Compression mode               : Lossy
Delay relative to video        : -26 ms
Stream size                    : 73.7 MiB (9%)
Title                          : GOPISAHI
Language                       : Hindi
Default                        : Yes
Forced                         : No

Audio #2
ID                             : 3
Format                         : AAC LC
Format/Info                    : Advanced Audio Codec Low Complexity
Codec ID                       : A_AAC-2
Duration                       : 1 h 47 min
Bit rate                       : 96.0 kb/s
Channel(s)                     : 2 channels
Channel layout                 : L R
Sampling rate                  : 48.0 kHz
Frame rate                     : 46.875 FPS (1024 SPF)
Compression mode               : Lossy
Delay relative to video        : -26 ms
Stream size                    : 73.9 MiB (9%)
Title                          : GOPISAHI
Language                       : English
Default                        : No
Forced                         : No

Text
ID                             : 4
Format                         : PGS
Muxing mode                    : zlib
Codec ID                       : S_HDMV/PGS
Codec ID/Info                  : Picture based subtitle format used on BDs/HD-DVDs
Duration                       : 1 h 41 min
Bit rate                       : 45.1 kb/s
Count of elements              : 2494
Stream size                    : 32.8 MiB (4%)
Title                          : GOPISAHI
Language                       : English
Default                        : No
Forced                         : No

Menu
00:00:00.000                   : :Chapter 1
00:04:30.937                   : :Chapter 2
00:09:58.932                   : :Chapter 3
00:15:26.926                   : :Chapter 4
00:20:01.867                   : :Chapter 5
00:24:44.149                   : :Chapter 6
00:29:44.449                   : :Chapter 7
00:37:10.562                   : :Chapter 8
00:41:22.480                   : :Chapter 9
00:45:44.742                   : :Chapter 10
00:49:22.293                   : :Chapter 11
00:56:06.363                   : :Chapter 12
01:00:27.958                   : :Chapter 13
01:05:34.264                   : :Chapter 14
01:12:27.009                   : :Chapter 15
01:19:02.738                   : :Chapter 16
01:24:23.058                   : :Chapter 17
01:30:23.752                   : :Chapter 18
01:35:01.696                   : :Chapter 19
01:40:01.329                   : :Chapter 20



 MAGNET

TORRENT

TORRENT 2 480P AND 720P CHOOSE WHICH ONE DWONLOAD

GDRIVE FILE COPY


DWONLOAD AUTO START IN 20 SEC

DOWNLOAD AND ONLINE TERABOX LINK = PASSWORD = 3kjj

MB HINDI 480P DWONLOAD AUTO START IN 20 SEC

MULTIUP

MIRRORACE

MEDIAFIRE

DWNLOAD AND ONLINE

ONLINE 720P