Step Up- All In 2014 x264 720p Esub BluRay Dual Audio English Hindi THE GOPI SAHI

Step Up All In (2014)

PG-13 07/25/2014 (US) RomanceDramaMusic 1h 52m 
 
Play Trailer

Every Step Has Led To This

Overview

All-stars from the previous Step Up installments come together in glittering Las Vegas, battling for a victory that could define their dreams and their careers.

 

Directed byTrish Sie
Produced by
Written byJohn Swetnam
Based onCharacters
by Duane Adler
Starring
Music byJeff Cardoni
CinematographyBrian Pearson
Edited byNiven Howie
Production
companies
Distributed byLionsgate[1]
Release date
  • July 9, 2014 (Belgium)
  • August 8, 2014 (United States)
Running time
112 minutes
CountryUnited States
LanguageEnglish
Budget$35 million[citation needed]
Box office$86.1 million[1]

 


Step Up- All In 2014 x264 720p Esub BluRay Dual Audio English Hindi THE GOPI SAHI

Format                         : Matroska
Format version                 : Version 4
File size                      : 891 MiB
Duration                       : 1 h 51 min
Overall bit rate               : 1 114 kb/s
Movie name                     : 5. Step Up- All In 2014 GOPISAHI
Encoded date                   : UTC 2019-11-10 14:24:44
Writing application            : mkvmerge v35.0.0 ('All The Love In The World') 64-bit
Writing library                : libebml v1.3.9 + libmatroska v1.5.2
Attachments                    : RONIN.jpg

Video
ID                             : 1
Format                         : AVC
Format/Info                    : Advanced Video Codec
Format profile                 : [email protected]
Format settings                : CABAC / 12 Ref Frames
Format settings, CABAC         : Yes
Format settings, Reference fra : 12 frames
Codec ID                       : V_MPEG4/ISO/AVC
Duration                       : 1 h 51 min
Bit rate                       : 899 kb/s
Width                          : 1 280 pixels
Height                         : 534 pixels
Display aspect ratio           : 2.40:1
Frame rate mode                : Constant
Frame rate                     : 23.976 (24000/1001) FPS
Color space                    : YUV
Chroma subsampling             : 4:2:0
Bit depth                      : 8 bits
Scan type                      : Progressive
Bits/(Pixel*Frame)             : 0.055
Stream size                    : 719 MiB (81%)
Title                          : GOPISAHI
Writing library                : x264 core 157 r2935 545de2f

Audio #1
ID                             : 2
Format                         : AAC LC
Format/Info                    : Advanced Audio Codec Low Complexity
Codec ID                       : A_AAC-2
Duration                       : 1 h 51 min
Bit rate                       : 96.0 kb/s
Channel(s)                     : 2 channels
Channel layout                 : L R
Sampling rate                  : 48.0 kHz
Frame rate                     : 46.875 FPS (1024 SPF)
Compression mode               : Lossy
Delay relative to video        : -26 ms
Stream size                    : 77.0 MiB (9%)
Title                          : GOPISAHI
Language                       : Hindi
Default                        : Yes
Forced                         : No

Audio #2
ID                             : 3
Format                         : AAC LC
Format/Info                    : Advanced Audio Codec Low Complexity
Codec ID                       : A_AAC-2
Duration                       : 1 h 51 min
Bit rate                       : 96.0 kb/s
Channel(s)                     : 2 channels
Channel layout                 : L R
Sampling rate                  : 48.0 kHz
Frame rate                     : 46.875 FPS (1024 SPF)
Compression mode               : Lossy
Delay relative to video        : -26 ms
Stream size                    : 77.1 MiB (9%)
Title                          : GOPISAHI
Language                       : English
Default                        : No
Forced                         : No

Text #1
ID                             : 4
Format                         : PGS
Muxing mode                    : zlib
Codec ID                       : S_HDMV/PGS
Codec ID/Info                  : Picture based subtitle format used on BDs/HD-DVDs
Duration                       : 1 h 48 min
Bit rate                       : 31.2 kb/s
Count of elements              : 2426
Stream size                    : 24.2 MiB (3%)
Title                          : GOPISAHI
Language                       : English
Default                        : No
Forced                         : No

Text #2
ID                             : 5
Format                         : PGS
Muxing mode                    : zlib
Codec ID                       : S_HDMV/PGS
Codec ID/Info                  : Picture based subtitle format used on BDs/HD-DVDs
Duration                       : 1 h 48 min
Bit rate                       : 35.0 kb/s
Count of elements              : 2922
Stream size                    : 27.2 MiB (3%)
Title                          : GOPISAHI
Language                       : English
Default                        : No
Forced                         : No

Menu
00:00:00.000                   : :Chapter 1
00:05:40.340                   : :Chapter 2
00:12:12.732                   : :Chapter 3
00:19:05.144                   : :Chapter 4
00:26:09.902                   : :Chapter 5
00:32:55.974                   : :Chapter 6
00:39:17.021                   : :Chapter 7
00:46:30.454                   : :Chapter 8
00:55:57.688                   : :Chapter 9
01:03:04.447                   : :Chapter 10
01:07:06.356                   : :Chapter 11
01:14:23.125                   : :Chapter 12
01:22:08.590                   : :Chapter 13
01:29:23.692                   : :Chapter 14
01:35:56.751                   : :Chapter 15
01:43:34.208                   : :Chapter 16




 MAGNET

TORRENT

TORRENT 2 480P AND 720P CHOOSE WHICH ONE DWONLOAD

GDRIVE FILE COPY

DWONLOAD AUTO START IN 20 SEC


DOWNLOAD AND ONLINE TERABOX LINK = PASSWORD = r7i1

MB HINDI 480P DWONLOAD AUTO START IN 20 SEC

MULTIUP

MIRRORACE

MEDIAFIRE

DWNLOAD AND ONLINE

ONLINE 720P

 

Post a Comment

0 Comments