Step Up Revolution 2012 x264 720p Esub BluRay Dual Audio English Hindi THE GOPI SAHI

Step Up Revolution (2012)

PG-13 07/27/2012 (US) MusicDramaRomance 1h 39m 
 

One Step Can Change Your World

Overview

Emily arrives in Miami with aspirations to become a professional dancer. She sparks with Sean, the leader of a dance crew whose neighborhood is threatened by Emily's father's development plans.

Directed byScott Speer
Produced by
Written byAmanda Brody
Based onCharacters
by Duane Adler
Starring
Music byAaron Zigman
CinematographyCrash
Edited by
Production
companies
Distributed byLionsgate[1]
Release date
  • July 27, 2012 (United States)
Running time
99 minutes[2]
CountryUnited States
LanguageEnglish
Budget$33 million[1]
Box office$140.4 million[1]

 

 

Step Up Revolution 2012 x264 720p Esub BluRay Dual Audio English Hindi THE GOPI SAHI

Format                         : Matroska
Format version                 : Version 4
File size                      : 779 MiB
Duration                       : 1 h 38 min
Overall bit rate               : 1 104 kb/s
Movie name                     : Step Up Revolution 2012 GOPISAHI
Encoded date                   : UTC 2019-11-10 14:36:18
Writing application            : mkvmerge v35.0.0 ('All The Love In The World') 64-bit
Writing library                : libebml v1.3.9 + libmatroska v1.5.2
Attachments                    : RONIN.jpg

Video
ID                             : 1
Format                         : AVC
Format/Info                    : Advanced Video Codec
Format profile                 : [email protected]
Format settings                : CABAC / 12 Ref Frames
Format settings, CABAC         : Yes
Format settings, Reference fra : 12 frames
Codec ID                       : V_MPEG4/ISO/AVC
Duration                       : 1 h 38 min
Bit rate                       : 899 kb/s
Width                          : 1 280 pixels
Height                         : 534 pixels
Display aspect ratio           : 2.40:1
Frame rate mode                : Constant
Frame rate                     : 23.976 (24000/1001) FPS
Color space                    : YUV
Chroma subsampling             : 4:2:0
Bit depth                      : 8 bits
Scan type                      : Progressive
Bits/(Pixel*Frame)             : 0.055
Stream size                    : 634 MiB (81%)
Title                          : GOPISAHI
Writing library                : x264 core 157 r2935 545de2f

Audio #1
ID                             : 2
Format                         : AAC LC
Format/Info                    : Advanced Audio Codec Low Complexity
Codec ID                       : A_AAC-2
Duration                       : 1 h 38 min
Bit rate                       : 96.0 kb/s
Channel(s)                     : 2 channels
Channel layout                 : L R
Sampling rate                  : 48.0 kHz
Frame rate                     : 46.875 FPS (1024 SPF)
Compression mode               : Lossy
Delay relative to video        : 634 ms
Stream size                    : 68.0 MiB (9%)
Title                          : GOPISAHI
Language                       : Hindi
Default                        : Yes
Forced                         : No

Audio #2
ID                             : 3
Format                         : AAC LC
Format/Info                    : Advanced Audio Codec Low Complexity
Codec ID                       : A_AAC-2
Duration                       : 1 h 38 min
Bit rate                       : 96.0 kb/s
Channel(s)                     : 2 channels
Channel layout                 : L R
Sampling rate                  : 48.0 kHz
Frame rate                     : 46.875 FPS (1024 SPF)
Compression mode               : Lossy
Delay relative to video        : -26 ms
Stream size                    : 68.1 MiB (9%)
Title                          : GOPISAHI
Language                       : English
Default                        : No
Forced                         : No

Text
ID                             : 4
Format                         : PGS
Muxing mode                    : zlib
Codec ID                       : S_HDMV/PGS
Codec ID/Info                  : Picture based subtitle format used on BDs/HD-DVDs
Duration                       : 1 h 30 min
Bit rate                       : 36.2 kb/s
Count of elements              : 1816
Stream size                    : 23.5 MiB (3%)
Title                          : GOPISAHI
Language                       : English
Default                        : No
Forced                         : No

Menu
00:00:00.000                   : :Chapter 1
00:06:01.361                   : :Chapter 2
00:11:48.041                   : :Chapter 3
00:14:01.841                   : :Chapter 4
00:18:34.113                   : :Chapter 5
00:25:29.862                   : :Chapter 6
00:34:19.724                   : :Chapter 7
00:39:52.390                   : :Chapter 8
00:45:51.415                   : :Chapter 9
00:49:38.309                   : :Chapter 10
00:56:36.727                   : :Chapter 11
00:59:56.927                   : :Chapter 12
01:03:38.815                   : :Chapter 13
01:08:29.439                   : :Chapter 14
01:11:53.643                   : :Chapter 15
01:15:36.532                   : :Chapter 16
01:18:11.687                   : :Chapter 17
01:21:56.245                   : :Chapter 18
01:25:54.816                   : :Chapter 19
01:31:33.822                   : :Chapter 20