Swordfish 2001 x264 720p Esub BluRay English Hindi French THE GOPI SAHI

Swordfish (2001)

 
 
A covert counter-terrorist unit called Black Cell led by Gabriel Shear wants the money to help finance their war against international terrorism, but it's all locked away. Gabriel brings in convicted hacker Stanley Jobson to help him.

Director:

Dominic Sena

Writer:

Skip Woods
 
6.5/10
177,465

 

 

Directed byDominic Sena
Produced by
Written bySkip Woods
Starring
Music by
CinematographyPaul Cameron
Edited byStephen E. Rivkin
Production
companies
Distributed byWarner Bros. Pictures
Release date
  • June 8, 2001
Running time
99 minutes
CountryUnited States
LanguageEnglish
Budget$102 million[1]
Box office$147.1 million[1]


 

 Swordfish 2001 x264 720p Esub BluRay English Hindi French THE GOPI SAHI

Format                         : Matroska
Format version                 : Version 4
File size                      : 1.03 GiB
Duration                       : 1 h 39 min
Overall bit rate               : 1 489 kb/s
Movie name                     : Swordfish 2001 GOPI SAHI
Encoded date                   : UTC 2021-05-09 01:26:49
Writing application            : mkvmerge v56.1.0 ('My Friend') 64-bit
Writing library                : libebml v1.4.2 + libmatroska v1.6.4
Cover                          : Yes
Attachments                    : Cover.jpg / Box.jpg

Video
ID                             : 1
Format                         : AVC
Format/Info                    : Advanced Video Codec
Format profile                 : [email protected]
Format settings                : CABAC / 5 Ref Frames
Format settings, CABAC         : Yes
Format settings, Reference fra : 5 frames
Codec ID                       : V_MPEG4/ISO/AVC
Duration                       : 1 h 39 min
Bit rate                       : 899 kb/s
Width                          : 1 280 pixels
Height                         : 534 pixels
Display aspect ratio           : 2.40:1
Frame rate mode                : Constant
Frame rate                     : 23.976 (24000/1001) FPS
Color space                    : YUV
Chroma subsampling             : 4:2:0
Bit depth                      : 8 bits
Scan type                      : Progressive
Bits/(Pixel*Frame)             : 0.055
Stream size                    : 638 MiB (60%)
Title                          : GOPI SAHI
Writing library                : x264 core 157 r2935 545de2f

Audio #1
ID                             : 2
Format                         : AAC LC
Format/Info                    : Advanced Audio Codec Low Complexity
Codec ID                       : A_AAC-2
Duration                       : 1 h 33 min
Bit rate                       : 192 kb/s
Channel(s)                     : 6 channels
Channel layout                 : C L R Ls Rs LFE
Sampling rate                  : 44.1 kHz
Frame rate                     : 43.066 FPS (1024 SPF)
Compression mode               : Lossy
Delay relative to video        : -23 ms
Stream size                    : 129 MiB (12%)
Title                          : GOPI SAHI
Language                       : Hindi
Default                        : Yes
Forced                         : No

Audio #2
ID                             : 3
Format                         : AAC LC
Format/Info                    : Advanced Audio Codec Low Complexity
Codec ID                       : A_AAC-2
Duration                       : 1 h 39 min
Bit rate                       : 192 kb/s
Channel(s)                     : 6 channels
Channel layout                 : C L R Ls Rs LFE
Sampling rate                  : 48.0 kHz
Frame rate                     : 46.875 FPS (1024 SPF)
Compression mode               : Lossy
Delay relative to video        : -21 ms
Stream size                    : 136 MiB (13%)
Title                          : GOPI SAHI
Language                       : English
Default                        : No
Forced                         : No

Audio #3
ID                             : 4
Format                         : AAC LC
Format/Info                    : Advanced Audio Codec Low Complexity
Codec ID                       : A_AAC-2
Duration                       : 1 h 39 min
Bit rate                       : 192 kb/s
Channel(s)                     : 6 channels
Channel layout                 : C L R Ls Rs LFE
Sampling rate                  : 48.0 kHz
Frame rate                     : 46.875 FPS (1024 SPF)
Compression mode               : Lossy
Delay relative to video        : -16 ms
Stream size                    : 137 MiB (13%)
Title                          : GOPI SAHI
Language                       : French
Default                        : No
Forced                         : No

Text
ID                             : 5
Format                         : PGS
Muxing mode                    : zlib
Codec ID                       : S_HDMV/PGS
Codec ID/Info                  : Picture based subtitle format used on BDs/HD-DVDs
Duration                       : 1 h 38 min
Bit rate                       : 42.5 kb/s
Count of elements              : 1804
Stream size                    : 30.0 MiB (3%)
Title                          : GOPI SAHI
Language                       : English
Default                        : No
Forced                         : No

Menu
00:00:00.000                   : :Cinematic Theory
00:04:03.702                   : :Explosively Wrong Move
00:08:12.033                   : :Interception At LAX
00:11:47.498                   : :Ginger Visits
00:15:07.532                   : :Parental Devotion
00:18:47.084                   : :Axl In The Box
00:21:58.275                   : :Gabriel's World
00:24:14.828                   : :Through The Looking...
00:25:50.090                   : :Nearly Gone In 60...
00:30:36.043                   : :Stan's Only Shot
00:34:01.289                   : :A Deal
00:37:44.304                   : :Holly's Ride
00:42:11.654                   : :Way Over His Head
00:46:48.347                   : :Ginger Off Guard
00:49:12.867                   : :Operation Swordfish
00:51:52.318                   : :Worm And A Rottweiler
00:55:27.366                   : :Hackstasy
00:58:32.509                   : :Hitting The Hit Squad
01:03:18.586                   : :Executed For Treason
01:05:53.616                   : :War Costs
01:09:19.989                   : :Bank Crash
01:11:11.476                   : :Daughter In Danger
01:15:24.895                   : :Ginger Snapped
01:20:09.138                   : :Misdirection
01:23:15.782                   : :Bus That Could Fly
01:26:56.002                   : :Stan's Ending
01:29:01.378                   : :Flashback
01:30:59.496                   : :Travel Partners
01:33:29.729                   : :End Credits