Tangled 2010 x264 720p BluRay Dual Audio English Hindi THE GOPI SAHI

Tangled (2010)

PG 01/21/2011 (IN) AnimationFamily 1h 40m 

They're taking adventure to new lengths.

Overview

When the kingdom's most wanted-and most charming-bandit Flynn Rider hides out in a mysterious tower, he's taken hostage by Rapunzel, a beautiful and feisty tower-bound teen with 70 feet of magical, golden hair. Flynn's curious captor, who's looking for her ticket out of the tower where she's been locked away for years, strikes a deal with the handsome thief and the unlikely duo sets off on an action-packed escapade, complete with a super-cop horse, an over-protective chameleon and a gruff gang of pub thugs.

Directed by
Produced byRoy Conli
Screenplay byDan Fogelman
Based onRapunzel
by the Brothers Grimm
Starring
Music byAlan Menken
Edited byTim Mertens
Production
companies
Distributed byWalt Disney Studios Motion Pictures[2]
Release date
Running time
100 minutes[4]
CountryUnited States
LanguageEnglish
Budget$260 million[5][6]
Box office$592.4 million[6]
 

 


 

Tangled 2010 x264 720p BluRay Dual Audio English Hindi THE GOPI SAHI

Format                         : Matroska
Format version                 : Version 4
File size                      : 785 MiB
Duration                       : 1 h 40 min
Overall bit rate               : 1 094 kb/s
Movie name                     : Tangled 2010 GOPI SAHI
Encoded date                   : UTC 2021-01-05 04:31:19

Video
ID                             : 1
Format                         : AVC
Format/Info                    : Advanced Video Codec
Format profile                 : [email protected]
Format settings                : CABAC / 5 Ref Frames
Format settings, CABAC         : Yes
Format settings, Reference fra : 5 frames
Codec ID                       : V_MPEG4/ISO/AVC
Duration                       : 1 h 40 min
Bit rate                       : 899 kb/s
Width                          : 1 280 pixels
Height                         : 720 pixels
Display aspect ratio           : 16:9
Frame rate mode                : Constant
Frame rate                     : 23.976 (24000/1001) FPS
Color space                    : YUV
Chroma subsampling             : 4:2:0
Bit depth                      : 8 bits
Scan type                      : Progressive
Bits/(Pixel*Frame)             : 0.041
Stream size                    : 645 MiB (82%)
Title                          : GOPI SAHI
Writing library                : x264 core 157 r2935 545de2f

Audio #1
ID                             : 2
Format                         : AAC LC
Format/Info                    : Advanced Audio Codec Low Complexity
Codec ID                       : A_AAC-2
Duration                       : 1 h 40 min
Bit rate                       : 96.0 kb/s
Channel(s)                     : 2 channels
Channel layout                 : L R
Sampling rate                  : 48.0 kHz
Frame rate                     : 46.875 FPS (1024 SPF)
Compression mode               : Lossy
Delay relative to video        : 474 ms
Stream size                    : 69.0 MiB (9%)
Title                          : GOPI SAHI
Language                       : Hindi
Default                        : Yes
Forced                         : No

Audio #2
ID                             : 3
Format                         : AAC LC
Format/Info                    : Advanced Audio Codec Low Complexity
Codec ID                       : A_AAC-2
Duration                       : 1 h 40 min
Bit rate                       : 96.0 kb/s
Channel(s)                     : 2 channels
Channel layout                 : L R
Sampling rate                  : 48.0 kHz
Frame rate                     : 46.875 FPS (1024 SPF)
Compression mode               : Lossy
Delay relative to video        : -6 ms
Stream size                    : 69.1 MiB (9%)
Title                          : GOPI SAHI
Language                       : English
Default                        : No
Forced                         : No

Menu
00:00:00.000                   : :Chapter 1
00:08:21.084                   : :Chapter 2
00:15:43.401                   : :Chapter 3
00:24:41.355                   : :Chapter 4
00:34:42.289                   : :Chapter 5
00:42:31.007                   : :Chapter 6
00:50:26.065                   : :Chapter 7
00:59:22.267                   : :Chapter 8
01:10:35.982                   : :Chapter 9
01:19:23.717                   : :Chapter 10
01:25:22.159                   : :Chapter 11
01:31:21.059                   : :Chapter 12




 MAGNET

TORRENT

TORRENT 2 480P AND 720P CHOOSE WHICH ONE DWONLOAD

GDRIVE FILE COPY

DWONLOAD AUTO START IN 20 SEC

DOWNLOAD AND ONLINE TERABOX LINK
= PASSWORD = t8me

DWONLOAD AUTO START IN 20 SEC ZIP FILE


546 MB HINDI 480P DWONLOAD AUTO START IN 20 SEC

MULTIUP

MIRRORACE


MEDIAFIRE

ONLINE 720P


ONLINE 720P