Tango & Cash 1989 x264 720p Esub BluRay Dual Audio English Hindi THE GOPI SAHI

Tango & Cash (1989)

Framed by their ruthless arch-nemesis, a mismatched LAPD crime-fighting duo has to put its differences aside to even the score with the evil kingpin who put them behind bars once and for all.
EN

Directors:

Andrey Konchalovskiy (as Andrei Konchalovsky), Albert Magnoli (uncredited)

Writer:

Randy Feldman
 
6.4/10
97,474
Directed by
Produced by
Written byRandy Feldman
Jeffrey Boam (rewrites)
Starring
Music byHarold Faltermeyer
CinematographyDonald E. Thorin
Edited by
Production
company
The Guber-Peters Company
Distributed byWarner Bros.
Release date
  • December 22, 1989 (United States)
Running time
104 minutes[1]
CountryUnited States
LanguageEnglish
Budget$54 million[2]
Box office$120.4 million[3]



Tango & Cash 1989 x264 720p Esub BluRay Dual Audio English Hindi THE GOPI SAHI


Format                         : Matroska
Format version                 : Version 4
File size                      : 823 MiB
Duration                       : 1 h 43 min
Overall bit rate               : 1 109 kb/s
Movie name                     : Tango & Cash 1989 GOPISAHI
Encoded date                   : UTC 2019-09-04 07:02:41

Video
ID                             : 1
Format                         : AVC
Format/Info                    : Advanced Video Codec
Format profile                 : [email protected]
Format settings                : CABAC / 12 Ref Frames
Format settings, CABAC         : Yes
Format settings, Reference fra : 12 frames
Codec ID                       : V_MPEG4/ISO/AVC
Duration                       : 1 h 43 min
Bit rate                       : 899 kb/s
Width                          : 1 280 pixels
Height                         : 536 pixels
Display aspect ratio           : 2.40:1
Frame rate mode                : Constant
Frame rate                     : 23.976 (24000/1001) FPS
Color space                    : YUV
Chroma subsampling             : 4:2:0
Bit depth                      : 8 bits
Scan type                      : Progressive
Bits/(Pixel*Frame)             : 0.055
Stream size                    : 667 MiB (81%)
Title                          : GOPISAHI
Writing library                : x264 core 157 r2935 545de2f

Audio #1
ID                             : 2
Format                         : AAC LC
Format/Info                    : Advanced Audio Codec Low Complexity
Codec ID                       : A_AAC-2
Duration                       : 1 h 43 min
Bit rate                       : 96.0 kb/s
Channel(s)                     : 2 channels
Channel layout                 : L R
Sampling rate                  : 48.0 kHz
Frame rate                     : 46.875 FPS (1024 SPF)
Compression mode               : Lossy
Delay relative to video        : -21 ms
Stream size                    : 71.8 MiB (9%)
Title                          : GOPISAHI
Language                       : Hindi
Default                        : Yes
Forced                         : No

Audio #2
ID                             : 3
Format                         : AAC LC
Format/Info                    : Advanced Audio Codec Low Complexity
Codec ID                       : A_AAC-2
Duration                       : 1 h 43 min
Bit rate                       : 96.0 kb/s
Channel(s)                     : 2 channels
Channel layout                 : L R
Sampling rate                  : 48.0 kHz
Frame rate                     : 46.875 FPS (1024 SPF)
Compression mode               : Lossy
Delay relative to video        : -21 ms
Stream size                    : 71.6 MiB (9%)
Title                          : GOPISAHI
Language                       : English
Default                        : No
Forced                         : No

Text
ID                             : 4
Format                         : PGS
Muxing mode                    : zlib
Codec ID                       : S_HDMV/PGS
Codec ID/Info                  : Picture based subtitle format used on BDs/HD-DVDs
Duration                       : 1 h 43 min
Bit rate                       : 33.5 kb/s
Count of elements              : 2618
Stream size                    : 24.8 MiB (3%)
Title                          : GOPISAHI
Language                       : English
Default                        : Yes
Forced                         : Yes

Menu
00:00:00.000                   : en:Tango Goes Trucking
00:05:07.849                   : en:Cash's Unexpected Company
00:08:50.822                   : en:Brotherly Concern
00:10:55.947                   : en:English 101
00:13:57.712                   : en:A Mouse Trap
00:17:33.135                   : en:The Setup
00:23:08.220                   : en:Evidence; on Trial
00:25:49.757                   : en:Making a Statement
00:30:26.867                   : en:Shower Repartee
00:33:43.146                   : en:Welcoming Parade
00:35:00.015                   : en:Bunkmates
00:36:40.281                   : en:A Jailed Cop's Nightmare
00:41:49.132                   : en:Shocking Treatment
00:43:55.883                   : en:An Escape Plan
00:47:40.107                   : en:Busting Out
00:53:39.591                   : en:High-Wire Act
00:57:29.488                   : en:High-Tech with Owen
00:59:59.971                   : en:Goodbye, Wyler
01:01:41.031                   : en:Sounding Out Skinner
01:03:43.737                   : en:The Cleopatra Club
01:07:34.092                   : en:His Feminine Side
01:08:53.880                   : en:Tangling at Tango's
01:15:46.375                   : en:Rooftop Roughhouse with Requin
01:17:42.992                   : en:Bad Cop, Worse Cop
01:20:02.840                   : en:The Rv From Hell
01:21:51.782                   : en:Stakeout
01:23:56.448                   : en:Crashing Perret's Compound
01:28:39.648                   : en:Perret's Inner Sanctum
01:32:22.454                   : en:Requin on a Rampage
01:35:14.167                   : en:Done in By Mirrors
01:37:09.866                   : en:"You Guys Work Well Together"/End Credits




MAGNET

TORRENT

TORRENT 2

GDRIVE FILE COPY

DWONLOAD AUTO START IN 20 SEC

DOWNLOAD AND ONLINE TERABOX LINK = PASSWORD = 8885

MULTIUP

MIRRORACE

MEDIAFIRE


ONLINE 720P


ONLINE 720P