The 13th Warrior 1999 x264 720p Esub BluRay Dual Audio English Hindi THE GOPI SAHI

The 13th Warrior (1999)

 
 
A man, having fallen in love with the wrong woman, is sent by the sultan himself on a diplomatic mission to a distant land as an ambassador. Stopping at a Viking village port to restock on supplies, he finds himself unwittingly embroiled in a quest to banish a mysterious threat in a distant Viking land.
EN

Directors:

John McTiernan, Michael Crichton (uncredited)

Writers:

Michael Crichton (novel), William Wisher (screenplay) | 1 more credit »
 
6.6/10
117,751

 

Directed byJohn McTiernan
Produced by
Screenplay by
Based onEaters of the Dead
by Michael Crichton
Starring
Music byJerry Goldsmith
CinematographyPeter Menzies Jr.
Edited byJohn Wright
Production
company
Distributed byBuena Vista Pictures
Release date
  • August 27, 1999
Running time
103 minutes[1]
CountryUnited States
LanguageEnglish
Budget$85–160 million[2][3][4]
Box office$61.7 million[2]

 


The 13th Warrior 1999 x264 720p Esub BluRay Dual Audio English Hindi THE GOPI SAHI


Format                         : Matroska
Format version                 : Version 4
File size                      : 806 MiB
Duration                       : 1 h 42 min
Overall bit rate               : 1 096 kb/s
Movie name                     : The 13th Warrior 1999 GOPI SAHI
Encoded date                   : UTC 2021-05-10 21:44:26

Video
ID                             : 1
Format                         : AVC
Format/Info                    : Advanced Video Codec
Format profile                 : [email protected]
Format settings                : CABAC / 5 Ref Frames
Format settings, CABAC         : Yes
Format settings, Reference fra : 5 frames
Codec ID                       : V_MPEG4/ISO/AVC
Duration                       : 1 h 42 min
Bit rate                       : 899 kb/s
Width                          : 1 280 pixels
Height                         : 546 pixels
Display aspect ratio           : 2.35:1
Frame rate mode                : Constant
Frame rate                     : 23.976 (24000/1001) FPS
Color space                    : YUV
Chroma subsampling             : 4:2:0
Bit depth                      : 8 bits
Scan type                      : Progressive
Bits/(Pixel*Frame)             : 0.054
Stream size                    : 659 MiB (82%)
Title                          : GOPI SAHI
Writing library                : x264 core 157 r2935 545de2f


Audio #1
ID                             : 2
Format                         : AAC LC
Format/Info                    : Advanced Audio Codec Low Complexity
Codec ID                       : A_AAC-2
Duration                       : 1 h 42 min
Bit rate                       : 96.0 kb/s
Channel(s)                     : 2 channels
Channel layout                 : L R
Sampling rate                  : 48.0 kHz
Frame rate                     : 46.875 FPS (1024 SPF)
Compression mode               : Lossy
Delay relative to video        : 6 s 32 ms
Stream size                    : 70.8 MiB (9%)
Title                          : GOPI SAHI
Language                       : Hindi
Default                        : Yes
Forced                         : No

Audio #2
ID                             : 3
Format                         : AAC LC
Format/Info                    : Advanced Audio Codec Low Complexity
Codec ID                       : A_AAC-2
Duration                       : 1 h 42 min
Bit rate                       : 96.0 kb/s
Channel(s)                     : 2 channels
Channel layout                 : L R
Sampling rate                  : 48.0 kHz
Frame rate                     : 46.875 FPS (1024 SPF)
Compression mode               : Lossy
Delay relative to video        : -21 ms
Stream size                    : 70.7 MiB (9%)
Title                          : GOPI SAHI
Language                       : English
Default                        : No
Forced                         : No

Text
ID                             : 4
Format                         : PGS
Muxing mode                    : zlib
Codec ID                       : S_HDMV/PGS
Codec ID/Info                  : Picture based subtitle format used on BDs/HD-DVDs
Duration                       : 1 h 36 min
Bit rate                       : 13.5 kb/s
Count of elements              : 1416
Stream size                    : 9.37 MiB (1%)
Title                          : GOPI SAHI
Language                       : English
Default                        : Yes
Forced                         : No

Menu
00:00:00.000                   : :Chapter 1
00:03:43.932                   : :Chapter 2
00:06:21.089                   : :Chapter 3
00:07:42.003                   : :Chapter 4
00:10:52.068                   : :Chapter 5
00:15:27.677                   : :Chapter 6
00:19:25.915                   : :Chapter 7
00:21:28.454                   : :Chapter 8
00:26:44.812                   : :Chapter 9
00:33:01.104                   : :Chapter 10
00:36:38.196                   : :Chapter 11
00:42:14.490                   : :Chapter 12
00:46:43.509                   : :Chapter 13
00:51:31.547                   : :Chapter 14
00:56:23.922                   : :Chapter 15
01:05:08.363                   : :Chapter 16
01:08:33.359                   : :Chapter 17
01:10:49.245                   : :Chapter 18
01:18:53.979                   : :Chapter 19
01:24:58.468                   : :Chapter 20
01:27:29.494                   : :Chapter 21
01:28:49.491                   : :Chapter 22
01:32:25.790                   : :Chapter 23
01:36:44.841                   : :Chapter 24
01:38:01.834                   : :Chapter 25




MAGNET

TORRENT

TORRENT 2 ZIP FILE

GDRIVE FILE COPY

DWONLOAD AUTO START IN 20 SEC ZIP FILE

DOWNLOAD AND ONLINE DUBOX LINK = PASSWORD = 3hbh

MULTIUP

MIRRORACE

MEDIAFIRE

ULOZTO
ONLINE

ONLINE 720P


ONLINE 720P