The Italian Job 2003 x264 720p Esub BluRay Dual Audio English Hindi Telugu Tamil THE GOPI SAHI

 

Directed byF. Gary Gray
Produced byDonald De Line
Screenplay by
  • Donna Powers
  • Wayne Powers
Based onThe Italian Job
by Troy Kennedy Martin
Starring
Music byJohn Powell
CinematographyWally Pfister
Edited by
Production
company
Distributed byParamount Pictures
Release date
Running time
110 minutes
CountryUnited States[1][2]
LanguageEnglish
Budget$60 million[3]
Box office$176.1 million[3]

 

 


The Italian Job 2003 x264 720p Esub BluRay Dual Audio English Hindi THE GOPI SAHI


Format                         : Matroska
Format version                 : Version 4
File size                      : 1.00 GiB
Duration                       : 1 h 50 min
Overall bit rate               : 1 300 kb/s
Movie name                     : The Italian Job 2003 GOPI SAHI
Encoded date                   : UTC 2020-08-16 03:37:14

Video
ID                             : 1
Format                         : AVC
Format/Info                    : Advanced Video Codec
Format profile                 : [email protected]
Format settings                : CABAC / 5 Ref Frames
Format settings, CABAC         : Yes
Format settings, Reference fra : 5 frames
Codec ID                       : V_MPEG4/ISO/AVC
Duration                       : 1 h 50 min
Bit rate                       : 899 kb/s
Width                          : 1 280 pixels
Height                         : 544 pixels
Display aspect ratio           : 2.35:1
Frame rate mode                : Constant
Frame rate                     : 23.976 (24000/1001) FPS
Color space                    : YUV
Chroma subsampling             : 4:2:0
Bit depth                      : 8 bits
Scan type                      : Progressive
Bits/(Pixel*Frame)             : 0.054
Stream size                    : 711 MiB (69%)
Title                          : GOPI SAHI
Writing library                : x264 core 157 r2935 545de2f

Audio #1
ID                             : 2
Format                         : AAC LC
Format/Info                    : Advanced Audio Codec Low Complexity
Codec ID                       : A_AAC-2
Duration                       : 1 h 50 min
Bit rate                       : 96.0 kb/s
Channel(s)                     : 2 channels
Channel layout                 : L R
Sampling rate                  : 48.0 kHz
Frame rate                     : 46.875 FPS (1024 SPF)
Compression mode               : Lossy
Delay relative to video        : 1 s 593 ms
Stream size                    : 76.1 MiB (7%)
Title                          : GOPI SAHI
Language                       : Hindi
Default                        : Yes
Forced                         : No

Audio #2
ID                             : 3
Format                         : AAC LC
Format/Info                    : Advanced Audio Codec Low Complexity
Codec ID                       : A_AAC-2
Duration                       : 1 h 50 min
Bit rate                       : 96.0 kb/s
Channel(s)                     : 2 channels
Channel layout                 : L R
Sampling rate                  : 48.0 kHz
Frame rate                     : 46.875 FPS (1024 SPF)
Compression mode               : Lossy
Delay relative to video        : -21 ms
Stream size                    : 76.1 MiB (7%)
Title                          : GOPI SAHI
Language                       : English
Default                        : No
Forced                         : No

Audio #3
ID                             : 4
Format                         : AAC LC
Format/Info                    : Advanced Audio Codec Low Complexity
Codec ID                       : A_AAC-2
Duration                       : 1 h 50 min
Bit rate                       : 96.0 kb/s
Channel(s)                     : 2 channels
Channel layout                 : L R
Sampling rate                  : 48.0 kHz
Frame rate                     : 46.875 FPS (1024 SPF)
Compression mode               : Lossy
Delay relative to video        : 1 s 593 ms
Stream size                    : 76.1 MiB (7%)
Title                          : GOPI SAHI
Language                       : Tamil
Default                        : No
Forced                         : No

Audio #4
ID                             : 5
Format                         : AAC LC
Format/Info                    : Advanced Audio Codec Low Complexity
Codec ID                       : A_AAC-2
Duration                       : 1 h 50 min
Bit rate                       : 96.0 kb/s
Channel(s)                     : 2 channels
Channel layout                 : L R
Sampling rate                  : 48.0 kHz
Frame rate                     : 46.875 FPS (1024 SPF)
Compression mode               : Lossy
Delay relative to video        : 1 s 593 ms
Stream size                    : 76.2 MiB (7%)
Title                          : GOPI SAHI
Language                       : Telugu
Default                        : No
Forced                         : No

Text #1
ID                             : 6
Format                         : PGS
Muxing mode                    : zlib
Codec ID                       : S_HDMV/PGS
Codec ID/Info                  : Picture based subtitle format used on BDs/HD-DVDs
Duration                       : 9 s 1 ms
Bit rate                       : 126 kb/s
Count of elements              : 52
Stream size                    : 138 KiB (0%)
Title                          : GOPI SAHI
Language                       : Italian
Default                        : Yes
Forced                         : Yes

Text #2
ID                             : 7
Format                         : PGS
Muxing mode                    : zlib
Codec ID                       : S_HDMV/PGS
Codec ID/Info                  : Picture based subtitle format used on BDs/HD-DVDs
Duration                       : 1 h 43 min
Bit rate                       : 33.7 kb/s
Count of elements              : 2462
Stream size                    : 25.0 MiB (2%)
Title                          : GOPI SAHI
Language                       : English
Default                        : No
Forced                         : No

Text #3
ID                             : 8
Format                         : UTF-8
Codec ID                       : S_TEXT/UTF8
Codec ID/Info                  : UTF-8 Plain Text
Duration                       : 1 h 49 min
Bit rate                       : 121 b/s
Count of elements              : 1267
Stream size                    : 97.9 KiB (0%)
Title                          : GOPI SAHI
Language                       : Hindi
Default                        : No
Forced                         : No

Text #4
ID                             : 9
Format                         : UTF-8
Codec ID                       : S_TEXT/UTF8
Codec ID/Info                  : UTF-8 Plain Text
Duration                       : 1 h 45 min
Bit rate                       : 175 b/s
Count of elements              : 1386
Stream size                    : 136 KiB (0%)
Title                          : GOPI SAHI
Language                       : Tamil
Default                        : No
Forced                         : No

Text #5
ID                             : 10
Format                         : UTF-8
Codec ID                       : S_TEXT/UTF8
Codec ID/Info                  : UTF-8 Plain Text
Duration                       : 1 h 45 min
Bit rate                       : 147 b/s
Count of elements              : 1339
Stream size                    : 114 KiB (0%)
Title                          : GOPI SAHI
Language                       : Telugu
Default                        : No
Forced                         : No

Menu
00:00:00.000                   : :Chapter 1
00:02:26.021                   : :Chapter 2
00:05:28.453                   : :Chapter 3
00:11:26.728                   : :Chapter 4
00:16:49.425                   : :Chapter 5
00:24:00.522                   : :Chapter 6
00:30:03.969                   : :Chapter 7
00:40:30.303                   : :Chapter 8
00:54:58.962                   : :Chapter 9
01:01:34.441                   : :Chapter 10
01:08:08.293                   : :Chapter 11
01:16:50.439                   : :Chapter 12
01:23:27.794                   : :Chapter 13
01:28:36.436                   : :Chapter 14
01:34:55.148                   : :Chapter 15
01:40:17.386                   : :Chapter 16

 




MAGNET

TORRENT

TORRENT 2 480P AND 720P CHOOSE WHICH ONE DWONLOAD

GDRIVE FILE COPY

DWONLOAD AUTO START IN 20 SEC

DOWNLOAD AND ONLINE TERABOX LINK = PASSWORD = yaiy

DWONLOAD AUTO START IN 20 SEC ZIP FILE
 

634 MB 480P DWONLOAD AUTO START IN 20 SEC

MULTIUP


MIRRORACE

MEDIAFIRE

ONLINE 720P

 

Post a Comment

0 Comments