The Last Castle 2001 x264 720p Esub BluRay Dual Audio English Hindi THE GOPI SAHI

Directed byRod Lurie
Produced byRobert Lawrence
Written by
Starring
Music by
CinematographyShelly Johnson
Edited by
  • Michael Jablow
  • Kevin Stitt
Production
company
Robert Lawrence Productions
Distributed byDreamWorks Pictures
Release date
  • October 19, 2001
Running time
132 minutes
CountryUnited States
LanguageEnglish
Budget$72 million[1]
Box office$27.6 million[1]

 


The Last Castle 2001 x264 720p Esub BluRay Dual Audio English Hindi THE GOPI SAHI


Format                         : Matroska
Format version                 : Version 4
File size                      : 1.03 GiB
Duration                       : 2 h 11 min
Overall bit rate               : 1 121 kb/s
Movie name                     : The Last Castle 2001 GOPI SAHI
Encoded date                   : UTC 2021-05-29 06:46:43

Video
ID                             : 1
Format                         : AVC
Format/Info                    : Advanced Video Codec
Format profile                 : [email protected]
Format settings                : CABAC / 5 Ref Frames
Format settings, CABAC         : Yes
Format settings, Reference fra : 5 frames
Codec ID                       : V_MPEG4/ISO/AVC
Duration                       : 2 h 11 min
Bit rate                       : 899 kb/s
Width                          : 1 280 pixels
Height                         : 534 pixels
Display aspect ratio           : 2.40:1
Frame rate mode                : Constant
Frame rate                     : 23.976 (24000/1001) FPS
Color space                    : YUV
Chroma subsampling             : 4:2:0
Bit depth                      : 8 bits
Scan type                      : Progressive
Bits/(Pixel*Frame)             : 0.055
Stream size                    : 843 MiB (80%)
Title                          : GOPI SAHI
Writing library                : x264 core 157 r2935 545de2f

Audio #1
ID                             : 2
Format                         : AAC LC
Format/Info                    : Advanced Audio Codec Low Complexity
Codec ID                       : A_AAC-2
Duration                       : 2 h 11 min
Bit rate                       : 96.0 kb/s
Channel(s)                     : 2 channels
Channel layout                 : L R
Sampling rate                  : 48.0 kHz
Frame rate                     : 46.875 FPS (1024 SPF)
Compression mode               : Lossy
Delay relative to video        : -8 ms
Stream size                    : 90.4 MiB (9%)
Title                          : GOPI SAHI
Language                       : Hindi
Default                        : Yes
Forced                         : No

Audio #2
ID                             : 3
Format                         : AAC LC
Format/Info                    : Advanced Audio Codec Low Complexity
Codec ID                       : A_AAC-2
Duration                       : 2 h 11 min
Bit rate                       : 96.0 kb/s
Channel(s)                     : 2 channels
Channel layout                 : L R
Sampling rate                  : 48.0 kHz
Frame rate                     : 46.875 FPS (1024 SPF)
Compression mode               : Lossy
Delay relative to video        : -21 ms
Stream size                    : 90.4 MiB (9%)
Title                          : GOPI SAHI
Language                       : English
Default                        : No
Forced                         : No

Text #1
ID                             : 4
Format                         : PGS
Muxing mode                    : zlib
Codec ID                       : S_HDMV/PGS
Codec ID/Info                  : Picture based subtitle format used on BDs/HD-DVDs
Duration                       : 2 h 10 min
Bit rate                       : 22.8 kb/s
Count of elements              : 3122
Stream size                    : 21.3 MiB (2%)
Title                          : GOPI SAHI
Language                       : Hindi
Default                        : Yes
Forced                         : Yes

Text #2
ID                             : 5
Format                         : PGS
Muxing mode                    : zlib
Codec ID                       : S_HDMV/PGS
Codec ID/Info                  : Picture based subtitle format used on BDs/HD-DVDs
Duration                       : 2 h 4 min
Bit rate                       : 38.2 kb/s
Count of elements              : 3067
Stream size                    : 34.1 MiB (3%)
Title                          : GOPI SAHI
Language                       : English
Default                        : No
Forced                         : No

Menu
00:00:00.000                   : :Chapter 1
00:06:07.325                   : :Chapter 2
00:13:37.233                   : :Chapter 3
00:17:54.323                   : :Chapter 4
00:23:08.554                   : :Chapter 5
00:28:11.023                   : :Chapter 6
00:35:48.480                   : :Chapter 7
00:43:26.312                   : :Chapter 8
00:46:38.754                   : :Chapter 9
00:52:44.370                   : :Chapter 10
00:57:44.836                   : :Chapter 11
01:02:39.047                   : :Chapter 12
01:07:28.503                   : :Chapter 13
01:14:06.025                   : :Chapter 14
01:19:02.821                   : :Chapter 15
01:25:23.702                   : :Chapter 16
01:32:15.905                   : :Chapter 17
01:37:12.702                   : :Chapter 18
01:43:16.774                   : :Chapter 19
01:46:38.392                   : :Chapter 20
01:49:19.595                   : :Chapter 21
01:56:01.496                   : :Chapter 22
01:59:52.811                   : :Chapter 23
02:05:57.884                   : :Chapter 24





MAGNET

TORRENT

TORRENT 2 480P AND 720P CHOOSE WHICH ONE DWONLOAD

GDRIVE FILE COPY

DWONLOAD AUTO START IN 20 SEC

DOWNLOAD AND ONLINE TERABOX LINK = PASSWORD = hksi

DWONLOAD AUTO START IN 20 SEC ZIP FILE


744 MB HINDI 480P DWONLOAD AUTO START IN 20 SEC

MULTIUP

MIRRORACE

  DWNLOAD AND ONLINE


MEDIAFIRE

ONLINE 720P


ONLINE 720P

 

Post a Comment

0 Comments