The Last Samurai 2003 x264 720p Esub BluRay Dual Audio English Hindi THE GOPI SAHI

The Last Samurai (2003)

 
 

 

An American military advisor embraces the Samurai culture he was hired to destroy after he is captured in battle.
EN

Director:

Edward Zwick

Writers:

John Logan (story), John Logan (screenplay) | 2 more credits »
 
7.7/10
404,751

 

Directed byEdward Zwick
Produced by
Screenplay by
Story byJohn Logan
Starring
Music byHans Zimmer
CinematographyJohn Toll
Edited by
Production
companies
Distributed byWarner Bros. Pictures
Release date
  • November 20, 2003 (Tokyo)
  • December 5, 2003 (United States)
Running time
154 minutes[1]
CountryUnited States
Languages
  • English
  • Japanese
Budget$140 million[2]
Box office$456.8 million[2]

 


The Last Samurai 2003 x264 720p Esub BluRay Dual Audio English Hindi THE GOPI SAHI


Format                         : Matroska
Format version                 : Version 4
File size                      : 1.19 GiB
Duration                       : 2 h 34 min
Overall bit rate               : 1 103 kb/s
Movie name                     : The Last Samurai 2003 GOPI SAHI
Encoded date                   : UTC 2021-05-02 19:38:47

Video
ID                             : 1
Format                         : AVC
Format/Info                    : Advanced Video Codec
Format profile                 : [email protected]
Format settings                : CABAC / 5 Ref Frames
Format settings, CABAC         : Yes
Format settings, Reference fra : 5 frames
Codec ID                       : V_MPEG4/ISO/AVC
Duration                       : 2 h 34 min
Bit rate                       : 899 kb/s
Width                          : 1 280 pixels
Height                         : 528 pixels
Display aspect ratio           : 2.40:1
Frame rate mode                : Constant
Frame rate                     : 23.976 (24000/1001) FPS
Color space                    : YUV
Chroma subsampling             : 4:2:0
Bit depth                      : 8 bits
Scan type                      : Progressive
Bits/(Pixel*Frame)             : 0.055
Stream size                    : 991 MiB (81%)
Title                          : GOPI SAHI
Writing library                : x264 core 157 r2935 545de2f

Audio #1
ID                             : 2
Format                         : AAC LC
Format/Info                    : Advanced Audio Codec Low Complexity
Codec ID                       : A_AAC-2
Duration                       : 2 h 34 min
Bit rate                       : 96.0 kb/s
Channel(s)                     : 2 channels
Channel layout                 : L R
Sampling rate                  : 44.1 kHz
Frame rate                     : 43.066 FPS (1024 SPF)
Compression mode               : Lossy
Delay relative to video        : -23 ms
Stream size                    : 106 MiB (9%)
Title                          : GOPI SAHI
Language                       : Hindi
Default                        : Yes
Forced                         : No

Audio #2
ID                             : 3
Format                         : AAC LC
Format/Info                    : Advanced Audio Codec Low Complexity
Codec ID                       : A_AAC-2
Duration                       : 2 h 34 min
Bit rate                       : 96.0 kb/s
Channel(s)                     : 2 channels
Channel layout                 : L R
Sampling rate                  : 48.0 kHz
Frame rate                     : 46.875 FPS (1024 SPF)
Compression mode               : Lossy
Delay relative to video        : -21 ms
Stream size                    : 106 MiB (9%)
Title                          : GOPI SAHI
Language                       : English
Default                        : No
Forced                         : No

Text
ID                             : 4
Format                         : PGS
Muxing mode                    : zlib
Codec ID                       : S_HDMV/PGS
Codec ID/Info                  : Picture based subtitle format used on BDs/HD-DVDs
Duration                       : 2 h 33 min
Bit rate                       : 27.0 kb/s
Count of elements              : 1860
Stream size                    : 29.7 MiB (2%)
Title                          : GOPI SAHI
Language                       : English
Default                        : No
Forced                         : No

Menu
00:00:00.000                   : :Chapter 1
00:01:52.195                   : :Chapter 2
00:05:38.755                   : :Chapter 3
00:09:58.598                   : :Chapter 4
00:13:13.668                   : :Chapter 5
00:15:24.966                   : :Chapter 6
00:20:06.664                   : :Chapter 7
00:22:55.040                   : :Chapter 8
00:25:39.580                   : :Chapter 9
00:31:13.163                   : :Chapter 10
00:37:00.885                   : :Chapter 11
00:41:01.000                   : :Chapter 12
00:44:11.732                   : :Chapter 13
00:49:36.307                   : :Chapter 14
00:52:41.367                   : :Chapter 15
00:56:48.405                   : :Chapter 16
01:00:04.643                   : :Chapter 17
01:03:25.468                   : :Chapter 18
01:06:59.015                   : :Chapter 19
01:11:43.341                   : :Chapter 20
01:14:40.601                   : :Chapter 21
01:18:55.731                   : :Chapter 22
01:21:22.044                   : :Chapter 23
01:24:21.098                   : :Chapter 24
01:26:39.820                   : :Chapter 25
01:30:28.590                   : :Chapter 26
01:34:01.886                   : :Chapter 27
01:37:16.539                   : :Chapter 28
01:41:46.392                   : :Chapter 29
01:44:55.915                   : :Chapter 30
01:48:06.855                   : :Chapter 31
01:52:26.531                   : :Chapter 32
01:55:24.543                   : :Chapter 33
02:00:03.655                   : :Chapter 34
02:06:24.619                   : :Chapter 35
02:08:21.569                   : :Chapter 36
02:10:46.839                   : :Chapter 37
02:13:06.729                   : :Chapter 38
02:16:37.398                   : :Chapter 39
02:22:57.694                   : :Chapter 40
02:24:31.454                   : :Chapter 41

 




 MAGNET

TORRENT

TORRENT 2 ZIP FILE

GDRIVE FILE COPY

DWONLOAD AUTO START IN 20 SEC ZIP FILE

DOWNLOAD AND ONLINE DUBOX LINK = PASSWORD = v2sy

MULTIUP

MIRRORACE

MEDIAFIRE

ONLINE 720P

ONLINE 720P


Post a Comment

0 Comments