The Perfect Man 2005 x264 720p Esub BluRay Dual Audio English Hindi THE GOPI SAHI

 

The Perfect Man (2005)

PG 06/17/2005 (US) ComedyDramaFamilyRomance 1h 40m 
 

Is it all too good to be true?

Overview

Holly is tired of moving every time her mom Jean breaks up with yet another second-rate guy. To distract her mother from her latest bad choice, Holly conceives the perfect plan for the perfect man, an imaginary secret admirer who will romance Jean and boost her self-esteem.

Directed byMark Rosman
Produced by
Screenplay byGina Wendkos
Story by
Starring
Music byChristophe Beck
CinematographyJohn R. Leonetti
Edited byCara Silverman
Production
companies
Distributed byUniversal Pictures
Release date
  • June 17, 2005 (United States)
Running time
96 minutes
CountryUnited States
LanguageEnglish
Budget$10 million
Box office$19.8 million[2]



The Perfect Man 2005 x264 720p Esub BluRay Dual Audio English Hindi THE GOPI SAHI


Format                         : Matroska
Format version                 : Version 4
File size                      : 925 MiB
Duration                       : 1 h 40 min
Overall bit rate               : 1 286 kb/s
Movie name                     : The Perfect Man 2005 GOPI SAHI
Encoded date                   : UTC 2021-05-28 07:16:03

Video
ID                             : 1
Format                         : AVC
Format/Info                    : Advanced Video Codec
Format profile                 : [email protected]
Format settings                : CABAC / 5 Ref Frames
Format settings, CABAC         : Yes
Format settings, Reference fra : 5 frames
Codec ID                       : V_MPEG4/ISO/AVC
Duration                       : 1 h 40 min
Bit rate                       : 899 kb/s
Width                          : 1 280 pixels
Height                         : 694 pixels
Display aspect ratio           : 1.85:1
Frame rate mode                : Constant
Frame rate                     : 23.976 (24000/1001) FPS
Color space                    : YUV
Chroma subsampling             : 4:2:0
Bit depth                      : 8 bits
Scan type                      : Progressive
Bits/(Pixel*Frame)             : 0.042
Stream size                    : 647 MiB (70%)
Title                          : GOPI SAHI
Writing library                : x264 core 157 r2935 545de2f

Audio #1
ID                             : 2
Format                         : AAC LC
Format/Info                    : Advanced Audio Codec Low Complexity
Codec ID                       : A_AAC-2
Duration                       : 1 h 40 min
Bit rate                       : 192 kb/s
Channel(s)                     : 6 channels
Channel layout                 : C L R Ls Rs LFE
Sampling rate                  : 48.0 kHz
Frame rate                     : 46.875 FPS (1024 SPF)
Compression mode               : Lossy
Delay relative to video        : -21 ms
Stream size                    : 138 MiB (15%)
Title                          : GOPI SAHI
Language                       : Hindi
Default                        : Yes
Forced                         : No

Audio #2
ID                             : 3
Format                         : AAC LC
Format/Info                    : Advanced Audio Codec Low Complexity
Codec ID                       : A_AAC-2
Duration                       : 1 h 40 min
Bit rate                       : 192 kb/s
Channel(s)                     : 6 channels
Channel layout                 : C L R Ls Rs LFE
Sampling rate                  : 48.0 kHz
Frame rate                     : 46.875 FPS (1024 SPF)
Compression mode               : Lossy
Delay relative to video        : -21 ms
Stream size                    : 138 MiB (15%)
Title                          : GOPI SAHI
Language                       : English
Default                        : No
Forced                         : No

Text
ID                             : 4
Format                         : UTF-8
Codec ID                       : S_TEXT/UTF8
Codec ID/Info                  : UTF-8 Plain Text
Duration                       : 1 h 39 min
Bit rate                       : 85 b/s
Count of elements              : 1652
Stream size                    : 62.6 KiB (0%)
Title                          : GOPI SAHI
Language                       : English




MAGNET

TORRENT

TORRENT 2 480P AND 720P CHOOSE WHICH ONE DWONLOAD

GDRIVE FILE COPY

DWONLOAD AUTO START IN 20 SEC

DOWNLOAD AND ONLINE TERABOX LINK = PASSWORD = zath

DWONLOAD AUTO START IN 20 SEC ZIP FILE


570 MB HINDI 480P DWONLOAD AUTO START IN 20 SEC

MULTIUP

MIRRORACE

MEDIAFIRE

ONLINE 720P

ONLINE 720P