The Prestige 2006 x264 720p Esub BluRay Dual Audio English Hindi THE GOPI SAHI

The Prestige (2006)

PG-13 | | Drama, Mystery, Sci-Fi | 20 October 2006 (USA)
 
 
After a tragic accident, two stage magicians engage in a battle to create the ultimate illusion while sacrificing everything they have to outwit each other.
EN

Director:

Christopher Nolan

Writers:

Jonathan Nolan (screenplay), Christopher Nolan (screenplay) | 1 more credit »
 
8.5/10
1,212,984
 
 
Directed byChristopher Nolan
Produced by
Screenplay by
Based onThe Prestige
by Christopher Priest
Starring
Music byDavid Julyan
CinematographyWally Pfister
Edited byLee Smith
Production
companies
Distributed by
Release date
  • October 17, 2006 (El Capitan Theatre)
  • October 20, 2006 (United States)
  • November 10, 2006 (United Kingdom)
Running time
130 minutes[1]
Countries
  • United Kingdom[2]
  • United States[2]
LanguageEnglish
Budget$40 million[3]
Box office$109.7 million[3]
 

The Prestige 2006 x264 720p Esub BluRay Dual Audio English Hindi THE GOPI SAHI

Format                         : Matroska
Format version                 : Version 4
File size                      : 1.01 GiB
Duration                       : 2 h 10 min
Overall bit rate               : 1 109 kb/s
Movie name                     : The Prestige 2006 GOPI SAHI
Encoded date                   : UTC 2021-05-11 01:19:47

Video
ID                             : 1
Format                         : AVC
Format/Info                    : Advanced Video Codec
Format profile                 : [email protected]
Format settings                : CABAC / 5 Ref Frames
Format settings, CABAC         : Yes
Format settings, Reference fra : 5 frames
Codec ID                       : V_MPEG4/ISO/AVC
Duration                       : 2 h 10 min
Bit rate                       : 899 kb/s
Width                          : 1 280 pixels
Height                         : 554 pixels
Display aspect ratio           : 2.35:1
Frame rate mode                : Constant
Frame rate                     : 23.976 (24000/1001) FPS
Color space                    : YUV
Chroma subsampling             : 4:2:0
Bit depth                      : 8 bits
Scan type                      : Progressive
Bits/(Pixel*Frame)             : 0.053
Stream size                    : 838 MiB (81%)
Title                          : GOPI SAHI
Writing library                : x264 core 157 r2935 545de2f

Audio #1
ID                             : 2
Format                         : AAC LC
Format/Info                    : Advanced Audio Codec Low Complexity
Codec ID                       : A_AAC-2
Duration                       : 2 h 10 min
Bit rate                       : 96.0 kb/s
Channel(s)                     : 2 channels
Channel layout                 : L R
Sampling rate                  : 48.0 kHz
Frame rate                     : 46.875 FPS (1024 SPF)
Compression mode               : Lossy
Delay relative to video        : 29 ms
Stream size                    : 90.2 MiB (9%)
Title                          : GOPI SAHI
Language                       : Hindi
Default                        : Yes
Forced                         : No

Audio #2
ID                             : 3
Format                         : AAC LC
Format/Info                    : Advanced Audio Codec Low Complexity
Codec ID                       : A_AAC-2
Duration                       : 2 h 10 min
Bit rate                       : 96.0 kb/s
Channel(s)                     : 2 channels
Channel layout                 : L R
Sampling rate                  : 48.0 kHz
Frame rate                     : 46.875 FPS (1024 SPF)
Compression mode               : Lossy
Delay relative to video        : -21 ms
Stream size                    : 89.6 MiB (9%)
Title                          : GOPI SAHI
Language                       : English
Default                        : No
Forced                         : No

Text
ID                             : 4
Format                         : PGS
Muxing mode                    : zlib
Codec ID                       : S_HDMV/PGS
Codec ID/Info                  : Picture based subtitle format used on BDs/HD-DVDs
Duration                       : 2 h 4 min
Bit rate                       : 38.8 kb/s
Count of elements              : 3314
Stream size                    : 34.4 MiB (3%)
Title                          : GOPI SAHI
Language                       : English
Default                        : No
Forced                         : No

Menu
00:00:00.000                   : :Chapter 1
00:03:13.193                   : :Chapter 2
00:07:42.003                   : :Chapter 3
00:11:30.231                   : :Chapter 4
00:16:05.214                   : :Chapter 5
00:23:10.264                   : :Chapter 6
00:27:16.343                   : :Chapter 7
00:34:01.122                   : :Chapter 8
00:38:47.867                   : :Chapter 9
00:44:29.375                   : :Chapter 10
00:49:29.425                   : :Chapter 11
00:53:29.748                   : :Chapter 12
00:59:45.957                   : :Chapter 13
01:04:02.380                   : :Chapter 14
01:08:49.792                   : :Chapter 15
01:12:59.208                   : :Chapter 16
01:17:48.414                   : :Chapter 17
01:23:17.868                   : :Chapter 18
01:35:50.620                   : :Chapter 19
01:40:20.848                   : :Chapter 20
01:45:12.014                   : :Chapter 21
01:49:04.538                   : :Chapter 22
01:55:07.776                   : :Chapter 23
02:05:01.869                   : :Chapter 24