The Raid 2 2014 x264 720p Esub BluRay Dual Audio English Hindi THE GOPI SAHI

The Raid 2 (2014)

Serbuan maut 2: Berandal (original title)
 
 
Only a short time after the first raid, Rama goes undercover with the thugs of Jakarta and plans to bring down the syndicate and uncover the corruption within his police force.
EN

Director:

Gareth Evans

Writer:

Gareth Evans
 
8.0/10

115,522

 

Directed byGareth Evans
Produced by
Written byGareth Evans
Starring
Music by
Cinematography
  • Matt Flannery
  • Dimas Imam Subhono
Edited byGareth Evans
Production
companies
Distributed bySony Pictures Classics (North America)
Release date
  • 21 January 2014 (Sundance)
  • 28 March 2014 (United States)
Running time
150 minutes[1]
CountryIndonesia
Languages
  • Indonesian
  • Japanese
Budget$4.5 million[2]
Box office$6.6 million (excluding Indonesia and Japan)[3][4]





 

 

 The Raid 2 2014 x264 720p Esub BluRay Dual Audio English Hindi THE GOPI SAHI

Format                         : Matroska
Format version                 : Version 4
File size                      : 1.56 GiB
Duration                       : 2 h 30 min
Overall bit rate               : 1 483 kb/s
Movie name                     : The Raid 2 2014 GOPI SAHII
Encoded date                   : UTC 2021-04-29 09:45:54
Cover                          : Yes
Attachments                    : cover.jpg

Video
ID                             : 1
Format                         : AVC
Format/Info                    : Advanced Video Codec
Format profile                 : [email protected]
Format settings                : CABAC / 5 Ref Frames
Format settings, CABAC         : Yes
Format settings, Reference fra : 5 frames
Codec ID                       : V_MPEG4/ISO/AVC
Duration                       : 2 h 30 min
Bit rate                       : 899 kb/s
Width                          : 1 280 pixels
Height                         : 532 pixels
Display aspect ratio           : 2.40:1
Frame rate mode                : Constant
Frame rate                     : 23.976 (24000/1001) FPS
Color space                    : YUV
Chroma subsampling             : 4:2:0
Bit depth                      : 8 bits
Scan type                      : Progressive
Bits/(Pixel*Frame)             : 0.055
Stream size                    : 967 MiB (61%)
Title                          : GOPI SAHI
Writing library                : x264 core 157 r2935 545de2f

Audio #1
ID                             : 2
Format                         : AAC LC
Format/Info                    : Advanced Audio Codec Low Complexity
Codec ID                       : A_AAC-2
Duration                       : 2 h 30 min
Bit rate                       : 192 kb/s
Channel(s)                     : 6 channels
Channel layout                 : C L R Ls Rs LFE
Sampling rate                  : 48.0 kHz
Frame rate                     : 46.875 FPS (1024 SPF)
Compression mode               : Lossy
Stream size                    : 207 MiB (13%)
Title                          : GOPI SAHII
Language                       : Hindi
Default                        : Yes
Forced                         : No

Audio #2
ID                             : 3
Format                         : AAC LC
Format/Info                    : Advanced Audio Codec Low Complexity
Codec ID                       : A_AAC-2
Duration                       : 2 h 30 min
Bit rate                       : 192 kb/s
Channel(s)                     : 6 channels
Channel layout                 : C L R Ls Rs LFE
Sampling rate                  : 48.0 kHz
Frame rate                     : 46.875 FPS (1024 SPF)
Compression mode               : Lossy
Delay relative to video        : 9 ms
Stream size                    : 207 MiB (13%)
Title                          : GOPI SAHII
Language                       : Indonesian
Default                        : No
Forced                         : No

Audio #3
ID                             : 4
Format                         : AAC LC
Format/Info                    : Advanced Audio Codec Low Complexity
Codec ID                       : A_AAC-2
Duration                       : 2 h 30 min
Bit rate                       : 192 kb/s
Channel(s)                     : 6 channels
Channel layout                 : C L R Ls Rs LFE
Sampling rate                  : 48.0 kHz
Frame rate                     : 46.875 FPS (1024 SPF)
Compression mode               : Lossy
Delay relative to video        : 9 ms
Stream size                    : 207 MiB (13%)
Title                          : GOPI SAHII
Language                       : English
Default                        : No
Forced                         : No

Text
ID                             : 5
Format                         : PGS
Muxing mode                    : zlib
Codec ID                       : S_HDMV/PGS
Codec ID/Info                  : Picture based subtitle format used on BDs/HD-DVDs
Duration                       : 2 h 27 min
Bit rate                       : 13.1 kb/s
Count of elements              : 2434
Stream size                    : 13.8 MiB (1%)
Title                          : GOPI SAHI
Language                       : English
Default                        : Yes
Forced                         : No




MAGNET

TORRENT

TORRENT 2 ZIP FILE

GDRIVE FILE COPY

DWONLOAD AUTO START IN 20 SEC ZIP FILE

DOWNLOAD AND ONLINE DUBOX LINK = PASSWORD = ks7w

MULTIUP

MIRRORACE

MEDIAFIRE

ONLINE 720P

 

Post a comment

0 Comments