The Raid 2011 x264 720p Esub BluRay Dual Audio English Hindi THE GOPI SAHI

 

The Raid: Redemption (2011)

Serbuan maut (original title)
 
 
A S.W.A.T. team becomes trapped in a tenement run by a ruthless mobster and his army of killers and thugs.
EN

Director:

Gareth Evans (as Gareth Huw Evans)

Writer:

Gareth Evans (as Gareth Huw Evans)
 
7.6/10

192,503

 

Directed byGareth Evans
Produced byArio Sagantoro
Written byGareth Evans
Starring
Music by
Indonesia:
  • Fajar Yuskemal
  • Aria Prayogi

United States:

Cinematography
  • Matt Flannery
  • Dimas Imam Subhono
Edited byGareth Evans
Production
companies
  • PT Merantau Films
  • XYZ Films
  • Celluloid Nightmares
Distributed by
Release date
  • 8 September 2011 (TIFF)
  • 23 March 2012 (Indonesia)
Running time
101 minutes[1]
CountryIndonesia
LanguageIndonesian
Budget$1.1 million[2][3]
Box office$9.3 million[4]

 


 The Raid 2011 x264 720p Esub BluRay Dual Audio English Hindi THE GOPI SAHI

Format                         : Matroska
Format version                 : Version 4
File size                      : 933 MiB
Duration                       : 1 h 41 min
Overall bit rate               : 1 291 kb/s
Movie name                     : The Raid 2011 GOPI SAHI
Encoded date                   : UTC 2021-04-29 08:57:42
Cover                          : Yes
Attachments                    : cover.jpg

Video
ID                             : 1
Format                         : AVC
Format/Info                    : Advanced Video Codec
Format profile                 : [email protected]
Format settings                : CABAC / 5 Ref Frames
Format settings, CABAC         : Yes
Format settings, Reference fra : 5 frames
Codec ID                       : V_MPEG4/ISO/AVC
Duration                       : 1 h 41 min
Bit rate                       : 899 kb/s
Width                          : 1 280 pixels
Height                         : 720 pixels
Display aspect ratio           : 16:9
Frame rate mode                : Constant
Frame rate                     : 23.976 (24000/1001) FPS
Color space                    : YUV
Chroma subsampling             : 4:2:0
Bit depth                      : 8 bits
Scan type                      : Progressive
Bits/(Pixel*Frame)             : 0.041
Stream size                    : 650 MiB (70%)
Title                          : GOPI SAHI
Writing library                : x264 core 157 r2935 545de2f

Audio #1
ID                             : 2
Format                         : AAC LC
Format/Info                    : Advanced Audio Codec Low Complexity
Codec ID                       : A_AAC-2
Duration                       : 1 h 41 min
Bit rate                       : 192 kb/s
Channel(s)                     : 6 channels
Channel layout                 : C L R Ls Rs LFE
Sampling rate                  : 48.0 kHz
Frame rate                     : 46.875 FPS (1024 SPF)
Compression mode               : Lossy
Delay relative to video        : 13 ms
Stream size                    : 139 MiB (15%)
Title                          : GOPI SAHI
Language                       : Hindi
Default                        : Yes
Forced                         : No

Audio #2
ID                             : 3
Format                         : AAC LC
Format/Info                    : Advanced Audio Codec Low Complexity
Codec ID                       : A_AAC-2
Duration                       : 1 h 41 min
Bit rate                       : 192 kb/s
Channel(s)                     : 6 channels
Channel layout                 : C L R Ls Rs LFE
Sampling rate                  : 48.0 kHz
Frame rate                     : 46.875 FPS (1024 SPF)
Compression mode               : Lossy
Stream size                    : 139 MiB (15%)
Title                          : GOPI SAHI
Language                       : English
Default                        : No
Forced                         : No

Text
ID                             : 4
Format                         : PGS
Muxing mode                    : zlib
Codec ID                       : S_HDMV/PGS
Codec ID/Info                  : Picture based subtitle format used on BDs/HD-DVDs
Duration                       : 1 h 34 min
Bit rate                       : 13.7 kb/s
Count of elements              : 1043
Stream size                    : 9.29 MiB (1%)
Title                          : GOPI SAHI
Language                       : English
Default                        : Yes
Forced                         : Yes

Menu
00:00:00.000                   : en:00:00:00.000
00:06:15.125                   : en:00:06:15.125
00:12:36.381                   : en:00:12:36.381
00:17:37.765                   : en:00:17:37.765
00:22:45.698                   : en:00:22:45.698
00:27:06.917                   : en:00:27:06.917
00:32:45.881                   : en:00:32:45.881
00:37:27.495                   : en:00:37:27.495
00:42:37.889                   : en:00:42:37.889
00:48:49.927                   : en:00:48:49.927
00:55:16.104                   : en:00:55:16.104
00:59:58.720                   : en:00:59:58.720
01:05:15.829                   : en:01:05:15.829
01:10:53.332                   : en:01:10:53.332
01:16:29.168                   : en:01:16:29.168
01:30:09.779                   : en:01:30:09.779


 




 MAGNET

TORRENT

TORRENT 2 ZIP FILE

GDRIVE FILE COPY

DWONLOAD AUTO START IN 20 SEC ZIP FILE

DOWNLOAD AND ONLINE DUBOX LINK
= PASSWORD = jxwh

MULTIUP

MIRRORACE

MEDIAFIRE

ONLINE 720P

Post a comment

0 Comments