The Saint 1997 x264 720p Esub BluRay Dual Audio English Hindi THE GOPI SAHI

 

The Saint (1997)

PG-13 04/03/1997 (US) ThrillerActionRomanceScience FictionAdventure 1h 56m 
 

Never reveal your name. Never turn your back. Never surrender your heart.

Overview

Simon Templar (The Saint), is a thief for hire, whose latest job to steal the secret process for cold fusion puts him at odds with a traitor bent on toppling the Russian government, as well as the woman who holds its secret.

Directed byPhillip Noyce
Produced byDavid Brown
Robert Evans
William J. MacDonald
Mace Neufeld
Screenplay by
Story byJonathan Hensleigh
Based onSimon Templar
by Leslie Charteris
Starring
Music byGraeme Revell
CinematographyPhil Meheux
Edited byTerry Rawlings
Production
companies
Mace Neufeld Productions
Rysher Entertainment
Distributed byParamount Pictures
Release date
  • April 4, 1997
Running time
116 minutes
CountryUnited States
LanguageEnglish
Budget$68[citation needed]-$90 million[1]
Box office$169.4 million[1]


 

The Saint 1997 x264 720p Esub BluRay Dual Audio English Hindi THE GOPI SAHI

Format                         : Matroska
Format version                 : Version 4
File size                      : 916 MiB
Duration                       : 1 h 56 min
Overall bit rate               : 1 103 kb/s
Movie name                     : The Saint 1997 GOPI SAHI
Encoded date                   : UTC 2021-05-30 09:06:22

Video
ID                             : 1
Format                         : AVC
Format/Info                    : Advanced Video Codec
Format profile                 : [email protected]
Format settings                : CABAC / 5 Ref Frames
Format settings, CABAC         : Yes
Format settings, Reference fra : 5 frames
Codec ID                       : V_MPEG4/ISO/AVC
Duration                       : 1 h 56 min
Bit rate                       : 899 kb/s
Width                          : 1 280 pixels
Height                         : 546 pixels
Display aspect ratio           : 2.35:1
Frame rate mode                : Constant
Frame rate                     : 23.976 (24000/1001) FPS
Color space                    : YUV
Chroma subsampling             : 4:2:0
Bit depth                      : 8 bits
Scan type                      : Progressive
Bits/(Pixel*Frame)             : 0.054
Stream size                    : 747 MiB (81%)
Title                          : GOPI SAHI
Writing library                : x264 core 157 r2935 545de2f

Audio #1
ID                             : 2
Format                         : AAC LC
Format/Info                    : Advanced Audio Codec Low Complexity
Codec ID                       : A_AAC-2
Duration                       : 1 h 56 min
Bit rate                       : 96.0 kb/s
Channel(s)                     : 2 channels
Channel layout                 : L R
Sampling rate                  : 48.0 kHz
Frame rate                     : 46.875 FPS (1024 SPF)
Compression mode               : Lossy
Delay relative to video        : -13 ms
Stream size                    : 80.4 MiB (9%)
Title                          : GOPI SAHI
Language                       : Hindi
Default                        : Yes
Forced                         : No

Audio #2
ID                             : 3
Format                         : AAC LC
Format/Info                    : Advanced Audio Codec Low Complexity
Codec ID                       : A_AAC-2
Duration                       : 1 h 56 min
Bit rate                       : 96.0 kb/s
Channel(s)                     : 2 channels
Channel layout                 : L R
Sampling rate                  : 48.0 kHz
Frame rate                     : 46.875 FPS (1024 SPF)
Compression mode               : Lossy
Delay relative to video        : -21 ms
Stream size                    : 80.2 MiB (9%)
Title                          : GOPI SAHI
Language                       : English
Default                        : No
Forced                         : No

Text
ID                             : 4
Format                         : PGS
Muxing mode                    : zlib
Codec ID                       : S_HDMV/PGS
Codec ID/Info                  : Picture based subtitle format used on BDs/HD-DVDs
Duration                       : 1 h 50 min
Bit rate                       : 27.8 kb/s
Count of elements              : 1930
Stream size                    : 21.9 MiB (2%)
Title                          : GOPI SAHI
Language                       : English
Default                        : No
Forced                         : No

Menu
00:00:00.000                   : :Simon the Magician
00:07:23.693                   : :Friends, Countrymen, Russians
00:11:53.296                   : :The Microchip
00:16:27.820                   : :Martin de Porres
00:21:14.273                   : :Bruno Hautenfaust
00:27:32.401                   : :Cold Fusion Mumbo Jumbo
00:34:08.922                   : :Thomas More
00:39:29.784                   : :What's Your Name
00:44:15.945                   : :An Angel
00:49:20.666                   : :The Spider and the Fly
00:55:32.955                   : :Double Take
01:00:07.270                   : :You Found Me
01:05:56.244                   : :On Thin Ice
01:11:29.035                   : :Russian Hospitality
01:17:33.983                   : :Plus or Minus
01:21:49.905                   : :A Diversion
01:25:53.899                   : :My Personal Saint
01:31:43.540                   : :"Oh, Ye of Little Faith."
01:38:15.056                   : :Revelation in Red Square
01:42:04.035                   : :I Know You
01:48:17.866                   : :Her Biggest Fan
01:50:45.264                   : :Charity Donation / End Credits

 





 MAGNET

TORRENT

TORRENT 2 480P AND 720P CHOOSE WHICH ONE DWONLOAD

GDRIVE FILE COPY

DWONLOAD AUTO START IN 20 SEC

DOWNLOAD AND ONLINE TERABOX LINK = PASSWORD = 1quw

DWONLOAD AUTO START IN 20 SEC ZIP FILE


683 MB HINDI 480P DWONLOAD AUTO START IN 20 SEC

MULTIUP

MIRRORACE

MEDIAFIRE

DWNLOAD AND ONLINE

ONLINE 720P


ONLINE 720P