The Souvenir 2019 x264 720p Esub BluRay Dual Audio English Hindi THE GOPI SAHI

The Souvenir (2019)

 

A young film student in the early '80s becomes romantically involved with a complicated and untrustworthy man.
EN

Director:

Joanna Hogg

Writer:

Joanna Hogg (screenplay)
 
 
6.4/10
9,078
 
Directed byJoanna Hogg
Produced by
  • Joanna Hogg
  • Luke Schiller
Written byJoanna Hogg
Starring
CinematographyDavid Raedeker
Edited byHelle Le Fevre
Production
companies
Distributed by
Release date
  • January 27, 2019 (Sundance)
  • May 17, 2019 (United States)
  • August 30, 2019 (United Kingdom)
Running time
119 minutes[1]
Countries
  • United States
  • United Kingdom
LanguageEnglish
Box office$1.7 million[2][3]
 


Format                         : Matroska
Format version                 : Version 4
File size                      : 1.08 GiB
Duration                       : 1 h 59 min
Overall bit rate               : 1 286 kb/s
Movie name                     : The Souvenir 2019 GOPI SAHI
Encoded date                   : UTC 2021-05-14 12:25:39

Video
ID                             : 1
Format                         : AVC
Format/Info                    : Advanced Video Codec
Format profile                 : [email protected]
Format settings                : CABAC / 5 Ref Frames
Format settings, CABAC         : Yes
Format settings, Reference fra : 5 frames
Codec ID                       : V_MPEG4/ISO/AVC
Duration                       : 1 h 59 min
Bit rate                       : 899 kb/s
Width                          : 1 280 pixels
Height                         : 770 pixels
Display aspect ratio           : 5:3
Frame rate mode                : Constant
Frame rate                     : 23.976 (24000/1001) FPS
Color space                    : YUV
Chroma subsampling             : 4:2:0
Bit depth                      : 8 bits
Scan type                      : Progressive
Bits/(Pixel*Frame)             : 0.038
Stream size                    : 770 MiB (70%)
Title                          : GOPI SAHI
Writing library                : x264 core 157 r2935 545de2f

Audio #1
ID                             : 2
Format                         : AAC LC
Format/Info                    : Advanced Audio Codec Low Complexity
Codec ID                       : A_AAC-2
Duration                       : 1 h 59 min
Bit rate                       : 192 kb/s
Channel(s)                     : 6 channels
Channel layout                 : C L R Ls Rs LFE
Sampling rate                  : 48.0 kHz
Frame rate                     : 46.875 FPS (1024 SPF)
Compression mode               : Lossy
Delay relative to video        : 8 s 979 ms
Stream size                    : 164 MiB (15%)
Title                          : GOPI SAHI
Language                       : Hindi
Default                        : Yes
Forced                         : No

Audio #2
ID                             : 3
Format                         : AAC LC
Format/Info                    : Advanced Audio Codec Low Complexity
Codec ID                       : A_AAC-2
Duration                       : 1 h 59 min
Bit rate                       : 192 kb/s
Channel(s)                     : 6 channels
Channel layout                 : C L R Ls Rs LFE
Sampling rate                  : 48.0 kHz
Frame rate                     : 46.875 FPS (1024 SPF)
Compression mode               : Lossy
Delay relative to video        : -21 ms
Stream size                    : 164 MiB (15%)
Title                          : GOPI SAHI
Language                       : English
Default                        : No
Forced                         : No

Text

Language                       : English




MAGNET

TORRENT

TORRENT 2

GDRIVE FILE COPY

DWONLOAD AUTO START IN 20 SEC

DOWNLOAD AND ONLINE TERABOX LINK
= PASSWORD = wfx2

MULTIUP

MIRRORACE

MEDIAFIRE


ONLINE 720P

ONLINE 720P