The Taking of Pelham 123 2009 x264 720p Esub BluRay Dual Audio English Hindi THE GOPI SAHI

 

The Taking of Pelham 123 (2009)

 
 
Armed men hijack a New York City subway train, holding the passengers hostage in return for a ransom, and turning an ordinary day's work for dispatcher Walter Garber into a face-off with the mastermind behind the crime.
EN

Director:

Tony Scott

Writers:

Brian Helgeland (screenplay), John Godey (novel)
 
6.4/10
188,167
Directed byTony Scott
Produced by
Screenplay byBrian Helgeland
Based onThe Taking of Pelham One Two Three
by John Godey
Starring
Music byHarry Gregson-Williams
CinematographyTobias A. Schliessler
Edited byChris Lebenzon
Production
companies
Distributed bySony Pictures Releasing
Release date
  • June 12, 2009
Running time
106 minutes
CountryUnited States
LanguageEnglish
Budget$100 million[1]
Box office$150 million[2]

 


The Taking of Pelham 123 2009 x264 720p Esub BluRay Dual Audio English Hindi THE GOPI SAHI

Format                         : Matroska
Format version                 : Version 4
File size                      : 1 002 MiB
Duration                       : 1 h 45 min
Overall bit rate               : 1 323 kb/s
Movie name                     : The Taking of Pelham 123 2009 GOPI SAHI
Encoded date                   : UTC 2021-05-09 01:24:41

Video
ID                             : 1
Format                         : AVC
Format/Info                    : Advanced Video Codec
Format profile                 : [email protected]
Format settings                : CABAC / 5 Ref Frames
Format settings, CABAC         : Yes
Format settings, Reference fra : 5 frames
Codec ID                       : V_MPEG4/ISO/AVC
Duration                       : 1 h 45 min
Bit rate                       : 899 kb/s
Width                          : 1 280 pixels
Height                         : 534 pixels
Display aspect ratio           : 2.40:1
Frame rate mode                : Constant
Frame rate                     : 23.976 (24000/1001) FPS
Color space                    : YUV
Chroma subsampling             : 4:2:0
Bit depth                      : 8 bits
Scan type                      : Progressive
Bits/(Pixel*Frame)             : 0.055
Stream size                    : 681 MiB (68%)
Title                          : GOPI SAHI
Writing library                : x264 core 157 r2935 545de2f

Audio #1
ID                             : 2
Format                         : AAC LC
Format/Info                    : Advanced Audio Codec Low Complexity
Codec ID                       : A_AAC-2
Duration                       : 1 h 45 min
Bit rate                       : 192 kb/s
Channel(s)                     : 6 channels
Channel layout                 : C L R Ls Rs LFE
Sampling rate                  : 48.0 kHz
Frame rate                     : 46.875 FPS (1024 SPF)
Compression mode               : Lossy
Delay relative to video        : -21 ms
Stream size                    : 146 MiB (15%)
Title                          : GOPI SAHI
Language                       : Hindi
Default                        : Yes
Forced                         : No

Audio #2
ID                             : 3
Format                         : AAC LC
Format/Info                    : Advanced Audio Codec Low Complexity
Codec ID                       : A_AAC-2
Duration                       : 1 h 45 min
Bit rate                       : 192 kb/s
Channel(s)                     : 6 channels
Channel layout                 : C L R Ls Rs LFE
Sampling rate                  : 48.0 kHz
Frame rate                     : 46.875 FPS (1024 SPF)
Compression mode               : Lossy
Delay relative to video        : -21 ms
Stream size                    : 146 MiB (15%)
Title                          : GOPI SAHI
Language                       : English
Default                        : No
Forced                         : No

Text #1
ID                             : 4
Format                         : PGS
Muxing mode                    : zlib
Codec ID                       : S_HDMV/PGS
Codec ID/Info                  : Picture based subtitle format used on BDs/HD-DVDs
Duration                       : 1 h 44 min
Bit rate                       : 41.2 kb/s
Count of elements              : 2927
Stream size                    : 30.8 MiB (3%)
Title                          : GOPI SAHI
Language                       : Hindi
Default                        : Yes
Forced                         : Yes

Text #2
ID                             : 5
Format                         : PGS
Muxing mode                    : zlib
Codec ID                       : S_HDMV/PGS
Codec ID/Info                  : Picture based subtitle format used on BDs/HD-DVDs
Duration                       : 1 h 44 min
Bit rate                       : 41.5 kb/s
Count of elements              : 2832
Stream size                    : 30.9 MiB (3%)
Title                          : GOPI SAHI
Language                       : English
Default                        : No
Forced                         : No

Menu #1
00:00:00.000                   : :00:00:00.000
00:07:10.347                   : :00:07:10.347
00:12:56.192                   : :00:12:56.192
00:18:20.683                   : :00:18:20.683
00:24:19.833                   : :00:24:19.833
00:30:08.557                   : :00:30:08.557
00:36:33.692                   : :00:36:33.691
00:42:26.794                   : :00:42:26.794
00:48:44.213                   : :00:48:44.213
00:54:05.451                   : :00:54:05.451
01:00:23.286                   : :01:00:23.286
01:07:12.570                   : :01:07:12.570
01:12:07.281                   : :01:12:07.281
01:20:04.758                   : :01:20:04.717
01:25:28.415                   : :01:25:28.415
01:32:53.735                   : :01:32:53.568

Menu #2
00:00:00.000                   : 00:00:00.000
00:07:10.347                   : 00:07:10.347
00:12:56.192                   : 00:12:56.192
00:18:20.683                   : 00:18:20.683
00:24:19.833                   : 00:24:19.833
00:30:08.557                   : 00:30:08.557
00:36:33.691                   : 00:36:33.691
00:42:26.794                   : 00:42:26.794
00:48:44.213                   : 00:48:44.213
00:54:05.451                   : 00:54:05.451
01:00:23.286                   : 01:00:23.286
01:07:12.570                   : 01:07:12.570
01:12:07.281                   : 01:12:07.281
01:20:04.717                   : 01:20:04.717
01:25:28.415                   : 01:25:28.415
01:32:53.568                   : 01:32:53.568




 MAGNET

TORRENT

TORRENT 2 ZIP FILE

GDRIVE FILE COPY

DWONLOAD AUTO START IN 20 SEC ZIP FILE

DOWNLOAD AND ONLINE DUBOX LINK = PASSWORD = 2f4n

MULTIUP

MIRRORACE

MEDIAFIRE

ONLINE 720P

ONLINE 720P