The Tuxedo 2002 x264 720p Esub BluRay Dual Audio English Hindi THE GOPI SAHI

 

Directed byKevin Donovan
Produced byAdam Schroeder
John H. Williams
Screenplay byMichael J. Wilson
Michael J. Leeson
Story byPhil Hay
Matt Manfredi
Michael J. Wilson
Starring
Music byChristophe Beck
John Debney
CinematographyStephen F. Windon
Edited byCraig Herring
Production
companies
Blue Train Productions
DreamWorks SKG
Parkes / MacDonald Productions
Distributed byDreamWorks Pictures
Release date
  • September 27, 2002
Running time
98 minutes
CountryUnited States
LanguageEnglish[1]
Budget$60 million[2][3]
Box office$104.4 million[2][3]

 

 

The Tuxedo 2002 x264 720p Esub BluRay Dual Audio English Hindi THE GOPI SAHI


Format                         : Matroska
Format version                 : Version 4
File size                      : 786 MiB
Duration                       : 1 h 38 min
Overall bit rate               : 1 113 kb/s
Movie name                     : The Tuxedo 2002 GOPI SAHI
Encoded date                   : UTC 2021-05-29 13:43:29

Video
ID                             : 1
Format                         : AVC
Format/Info                    : Advanced Video Codec
Format profile                 : [email protected]
Format settings                : CABAC / 5 Ref Frames
Format settings, CABAC         : Yes
Format settings, Reference fra : 5 frames
Codec ID                       : V_MPEG4/ISO/AVC
Duration                       : 1 h 38 min
Bit rate                       : 899 kb/s
Width                          : 1 280 pixels
Height                         : 690 pixels
Display aspect ratio           : 1.85:1
Frame rate mode                : Constant
Frame rate                     : 23.976 (24000/1001) FPS
Color space                    : YUV
Chroma subsampling             : 4:2:0
Bit depth                      : 8 bits
Scan type                      : Progressive
Bits/(Pixel*Frame)             : 0.042
Stream size                    : 635 MiB (81%)
Title                          : GOPI SAHI
Writing library                : x264 core 157 r2935 545de2f

Audio #1
ID                             : 2
Format                         : AAC LC
Format/Info                    : Advanced Audio Codec Low Complexity
Codec ID                       : A_AAC-2
Duration                       : 1 h 38 min
Bit rate                       : 96.0 kb/s
Channel(s)                     : 2 channels
Channel layout                 : L R
Sampling rate                  : 48.0 kHz
Frame rate                     : 46.875 FPS (1024 SPF)
Compression mode               : Lossy
Delay relative to video        : -18 ms
Stream size                    : 68.1 MiB (9%)
Title                          : GOPI SAHI
Language                       : Hindi
Default                        : Yes
Forced                         : No

Audio #2
ID                             : 3
Format                         : AAC LC
Format/Info                    : Advanced Audio Codec Low Complexity
Codec ID                       : A_AAC-2
Duration                       : 1 h 38 min
Bit rate                       : 96.0 kb/s
Channel(s)                     : 2 channels
Channel layout                 : L R
Sampling rate                  : 48.0 kHz
Frame rate                     : 46.875 FPS (1024 SPF)
Compression mode               : Lossy
Delay relative to video        : -21 ms
Stream size                    : 68.0 MiB (9%)
Title                          : GOPI SAHI
Language                       : English
Default                        : No
Forced                         : No

Text #1
ID                             : 4
Format                         : PGS
Muxing mode                    : zlib
Codec ID                       : S_HDMV/PGS
Codec ID/Info                  : Picture based subtitle format used on BDs/HD-DVDs
Duration                       : 1 h 34 min
Bit rate                       : 601 b/s
Count of elements              : 84
Stream size                    : 414 KiB (0%)
Title                          : GOPI SAHI
Language                       : Hindi
Default                        : Yes
Forced                         : Yes

Text #2
ID                             : 5
Format                         : PGS
Muxing mode                    : zlib
Codec ID                       : S_HDMV/PGS
Codec ID/Info                  : Picture based subtitle format used on BDs/HD-DVDs
Duration                       : 1 h 32 min
Bit rate                       : 40.4 kb/s
Count of elements              : 2336
Stream size                    : 26.7 MiB (3%)
Title                          : GOPI SAHI
Language                       : English
Default                        : No
Forced                         : No

Menu
00:00:00.000                   : :Chapter 1
00:03:36.341                   : :Chapter 2
00:08:11.700                   : :Chapter 3
00:10:52.193                   : :Chapter 4
00:13:17.088                   : :Chapter 5
00:19:14.320                   : :Chapter 6
00:24:43.941                   : :Chapter 7
00:27:08.168                   : :Chapter 8
00:31:22.631                   : :Chapter 9
00:35:34.049                   : :Chapter 10
00:41:21.688                   : :Chapter 11
00:44:48.060                   : :Chapter 12
00:49:03.983                   : :Chapter 13
00:57:12.054                   : :Chapter 14
01:05:19.290                   : :Chapter 15
01:12:30.221                   : :Chapter 16
01:17:32.898                   : :Chapter 17
01:22:41.623                   : :Chapter 18
01:28:34.851                   : :Chapter 19
01:33:09.918                   : :Chapter 20





 MAGNET

TORRENT

TORRENT 2 480P AND 720P CHOOSE WHICH ONE DWONLOAD

GDRIVE FILE COPY


DWONLOAD AUTO START IN 20 SEC

DOWNLOAD AND ONLINE TERABOX LINK = PASSWORD = vn9b

DWONLOAD AUTO START IN 20 SEC ZIP FILE

566 MB HINDI 480P DWONLOAD AUTO START IN 20 SEC

MULTIUP

MIRRORACE

MEDIAFIRE

 DWNLOAD AND ONLINE

ONLINE 720P

ONLINE 720P