The Vigil 2019 x264 720p WebHD Esub Dual Audio English Hindi THE GOPI SAHI

 

The Vigil (2019)

 
 
A man providing overnight watch to a deceased member of his former Orthodox Jewish community finds himself opposite a malevolent entity, in writer-director Keith Thomas' electrifying feature debut.
EN

Director:

Keith Thomas

Writer:

Keith Thomas
 
5.7/10
3,791
Directed byKeith Thomas
Produced by
  • Raphael Margules
  • J.D. Lifshitz
  • Adam Margules
Written byKeith Thomas
Starring
Music byMichael Yezerski[1]
CinematographyZach Kuperstein[2]
Edited byBrett W. Bachman
Production
companies
Distributed byIFC Midnight
Release date
  • September 2019 (TIFF)[3]
  • August 5, 2020 (International)[4]
  • February 26, 2021 (United States)
Running time
89 minutes
CountryUnited States
Languages
Box office$1.8 million[5][6]

 


The Vigil 2019 x264 720p WebHD Esub Dual Audio English Hindi THE GOPI SAHI


Format                         : Matroska
Format version                 : Version 4
File size                      : 704 MiB
Duration                       : 1 h 29 min
Overall bit rate               : 1 094 kb/s
Movie name                     : The Vigil 2019 GOPI SAHI
Encoded date                   : UTC 2021-05-01 06:39:06

Video
ID                             : 1
Format                         : AVC
Format/Info                    : Advanced Video Codec
Format profile                 : [email protected]
Format settings                : CABAC / 5 Ref Frames
Format settings, CABAC         : Yes
Format settings, Reference fra : 5 frames
Codec ID                       : V_MPEG4/ISO/AVC
Duration                       : 1 h 29 min
Bit rate                       : 899 kb/s
Width                          : 1 280 pixels
Height                         : 544 pixels
Display aspect ratio           : 2.35:1
Frame rate mode                : Constant
Frame rate                     : 24.000 FPS
Color space                    : YUV
Chroma subsampling             : 4:2:0
Bit depth                      : 8 bits
Scan type                      : Progressive
Bits/(Pixel*Frame)             : 0.054
Stream size                    : 578 MiB (82%)
Title                          : GOPI SAHI
Writing library                : x264 core 157 r2935 545de2f

Audio #1
ID                             : 2
Format                         : AAC LC
Format/Info                    : Advanced Audio Codec Low Complexity
Codec ID                       : A_AAC-2
Duration                       : 1 h 29 min
Bit rate                       : 96.0 kb/s
Channel(s)                     : 2 channels
Channel layout                 : L R
Sampling rate                  : 48.0 kHz
Frame rate                     : 46.875 FPS (1024 SPF)
Compression mode               : Lossy
Delay relative to video        : -21 ms
Stream size                    : 62.0 MiB (9%)
Title                          : GOPI SAHI
Language                       : Hindi
Default                        : Yes
Forced                         : No

Audio #2
ID                             : 3
Format                         : AAC LC
Format/Info                    : Advanced Audio Codec Low Complexity
Codec ID                       : A_AAC-2
Duration                       : 1 h 29 min
Bit rate                       : 96.0 kb/s
Channel(s)                     : 2 channels
Channel layout                 : L R
Sampling rate                  : 48.0 kHz
Frame rate                     : 46.875 FPS (1024 SPF)
Compression mode               : Lossy
Delay relative to video        : -21 ms
Stream size                    : 62.0 MiB (9%)
Title                          : GOPI SAHI
Language                       : English
Default                        : No
Forced                         : No

Text
ID                             : 4
Format                         : UTF-8
Codec ID                       : S_TEXT/UTF8
Codec ID/Info                  : UTF-8 Plain Text
Duration                       : 1 h 27 min
Bit rate                       : 39 b/s
Count of elements              : 1000
Stream size                    : 25.2 KiB (0%)
Title                          : GOPI SAHI
Language                       : English
Default                        : Yes
Forced                         : No




MAGNET

TORRENT

TORRENT 2 ZIP FILE

GDRIVE FILE COPY

DWONLOAD AUTO START IN 20 SEC ZIP FILE

DOWNLOAD AND ONLINE DUBOX LINK = PASSWORD = skig

MULTIUP

MIRRORACE

MEDIAFIRE

ONLINE 720P


Post a comment

0 Comments