Time To Dance 2021 x264 720p WebHD Esub Hindi THE GOPI SAHI

 

Time to Dance (2021)

 
 
The plot revolves around the life of a dancer girl. She meets and falls in love with a youngster. Their life revolves around dance. Things take a new turn as unexpected events happen in their life.
EN

Director:

Stanley D'Costa

Writers:

Deepak Dwivedi (Dialogue), Deepak Dwivedi (Screenplay)
 
1.4/10
428

 

 


Time To Dance 2021 x264 720p WebHD Esub Hindi THE GOPI SAHI


Format                         : Matroska
Format version                 : Version 4
File size                      : 839 MiB
Duration                       : 1 h 47 min
Overall bit rate               : 1 094 kb/s
Movie name                     : Time To Dance 2021 GOPI SAHI
Encoded date                   : UTC 2021-05-07 03:49:37

Video
ID                             : 1
Format                         : AVC
Format/Info                    : Advanced Video Codec
Format profile                 : [email protected]
Format settings                : CABAC / 5 Ref Frames
Format settings, CABAC         : Yes
Format settings, Reference fra : 5 frames
Codec ID                       : V_MPEG4/ISO/AVC
Duration                       : 1 h 47 min
Bit rate                       : 899 kb/s
Width                          : 1 280 pixels
Height                         : 536 pixels
Display aspect ratio           : 2.40:1
Frame rate mode                : Constant
Frame rate                     : 25.000 FPS
Color space                    : YUV
Chroma subsampling             : 4:2:0
Bit depth                      : 8 bits
Scan type                      : Progressive
Bits/(Pixel*Frame)             : 0.052
Stream size                    : 689 MiB (82%)
Title                          : GOPI SAHI
Writing library                : x264 core 157 r2935 545de2f

Audio
ID                             : 2
Format                         : AAC LC
Format/Info                    : Advanced Audio Codec Low Complexity
Codec ID                       : A_AAC-2
Duration                       : 1 h 47 min
Bit rate                       : 192 kb/s
Channel(s)                     : 6 channels
Channel layout                 : C L R Ls Rs LFE
Sampling rate                  : 48.0 kHz
Frame rate                     : 46.875 FPS (1024 SPF)
Compression mode               : Lossy
Delay relative to video        : -21 ms
Stream size                    : 148 MiB (18%)
Title                          : GOPI SAHI
Language                       : Hindi
Default                        : Yes
Forced                         : No

Text #1
Language                       : English

Text #2
Language                       : Hindi

Text #3
Language                       : Arabic

Text #4
Language                       : Chinese

Text #5
Language                       : Chinese




 MAGNET

TORRENT

TORRENT 2 ZIP FILE

GDRIVE FILE COPY

DWONLOAD AUTO START IN 20 SEC ZIP FILE

DOWNLOAD AND ONLINE DUBOX LINK
= PASSWORD = 1da1

MULTIUP

MIRRORACE

MEDIAFIRE

ONLINE 720P


ONLINE 720P

 

Post a Comment

0 Comments