Timecop 1994 x264 720p Esub BluRay Dual Audio English Hindi THE GOPI SAHI

Timecop (1994)

 
 
Max Walker, an officer for a security agency that regulates time travel, must fend for his life against a shady politician who's intent on changing the past to control the future.
EN

Director:

Peter Hyams

Writers:

Mark Verheiden (screenplay), Mike Richardson (story) | 3 more credits »
 
5.9/10
56,432

 

Directed byPeter Hyams
Produced by
Screenplay byMark Verheiden
Story by
Based on
Timecop
by
  • Mike Richardson
  • Mark Verheiden
Starring
Music by
CinematographyPeter Hyams
Edited bySteven Kemper
Production
companies
Distributed byUniversal Pictures
Release date
  • September 16, 1994
Running time
98 minutes[1]
CountryUnited States
LanguageEnglish
Budget$27 million[2]
Box office$101.6 million[3]

 

Timecop 1994 x264 720p Esub BluRay Dual Audio English Hindi THE GOPI SAHI

Format                         : Matroska
Format version                 : Version 4
File size                      : 766 MiB
Duration                       : 1 h 37 min
Overall bit rate               : 1 094 kb/s
Movie name                     : Timecop 1994 GOPI SAHI
Encoded date                   : UTC 2021-05-09 03:17:28
Writing application            : mkvmerge v52.0.0 ('Secret For The Mad') 64-bit
Writing library                : libebml v1.4.1 + libmatroska v1.6.2

Video
ID                             : 1
Format                         : AVC
Format/Info                    : Advanced Video Codec
Format profile                 : [email protected]
Format settings                : CABAC / 5 Ref Frames
Format settings, CABAC         : Yes
Format settings, Reference fra : 5 frames
Codec ID                       : V_MPEG4/ISO/AVC
Duration                       : 1 h 37 min
Bit rate                       : 899 kb/s
Width                          : 1 280 pixels
Height                         : 544 pixels
Display aspect ratio           : 2.35:1
Frame rate mode                : Constant
Frame rate                     : 23.976 (24000/1001) FPS
Color space                    : YUV
Chroma subsampling             : 4:2:0
Bit depth                      : 8 bits
Scan type                      : Progressive
Bits/(Pixel*Frame)             : 0.054
Stream size                    : 629 MiB (82%)
Title                          : GOPI SAHI
Writing library                : x264 core 157 r2935 545de2f

Audio #1
ID                             : 2
Format                         : AAC LC
Format/Info                    : Advanced Audio Codec Low Complexity
Codec ID                       : A_AAC-2
Duration                       : 1 h 37 min
Bit rate                       : 96.0 kb/s
Channel(s)                     : 2 channels
Channel layout                 : L R
Sampling rate                  : 44.1 kHz
Frame rate                     : 43.066 FPS (1024 SPF)
Compression mode               : Lossy
Delay relative to video        : -9 ms
Stream size                    : 67.0 MiB (9%)
Title                          : GOPI SAHI
Language                       : Hindi
Default                        : Yes
Forced                         : No

Audio #2
ID                             : 3
Format                         : AAC LC
Format/Info                    : Advanced Audio Codec Low Complexity
Codec ID                       : A_AAC-2
Duration                       : 1 h 37 min
Bit rate                       : 96.0 kb/s
Channel(s)                     : 2 channels
Channel layout                 : L R
Sampling rate                  : 48.0 kHz
Frame rate                     : 46.875 FPS (1024 SPF)
Compression mode               : Lossy
Delay relative to video        : -21 ms
Stream size                    : 67.5 MiB (9%)
Title                          : GOPI SAHI
Language                       : English
Default                        : No
Forced                         : No

Text
Language                       : English

 




 MAGNET

TORRENT


TORRENT 2 ZIP FILE


GDRIVE FILE COPY


DWONLOAD AUTO START IN 20 SEC ZIP FILE

DOWNLOAD AND ONLINE DUBOX LINK = PASSWORD = e457

MULTIUP

MIRRORACE

MEDIAFIRE

ONLINE 720P

ONLINE 720P

 

Post a Comment

0 Comments