Torment 1986 x264 720p Esub BluRay Dual Audio English Hindi THE GOPI SAHI

Torment (1986)

R | | Horror, Crime | April 1986 (USA)

 

 

A detective sets out to capture a psycho who kills women, but the psycho turns the tables and goes after the detective's girlfriend.
EN
 
 
4.6/10
101
 
 
Directed by
  • Samson Aslanian
  • John Hopkins
Produced by
  • Samson Aslanian
  • John Hopkins
Written by
  • Samson Aslanian
  • John Hopkins
Starring
  • Taylor Gilbert
  • William Witt
  • Eve Brenner
Music byChristopher Young
CinematographyStephen Carpenter
Edited by
Distributed byNew World Pictures
Release date
  • April 18, 1986[1]
Running time
85 minutes[1]
CountryUnited States
LanguageEnglish


Torment 1986 x264 720p Esub BluRay Dual Audio English Hindi THE GOPI SAHI


Format                         : Matroska
Format version                 : Version 4
File size                      : 654 MiB
Duration                       : 1 h 23 min
Overall bit rate               : 1 098 kb/s
Movie name                     : Torment 1986 GOPI SAHI
Encoded date                   : UTC 2021-05-02 16:40:14

Video
ID                             : 1
Format                         : AVC
Format/Info                    : Advanced Video Codec
Format profile                 : [email protected]
Format settings                : CABAC / 5 Ref Frames
Format settings, CABAC         : Yes
Format settings, Reference fra : 5 frames
Codec ID                       : V_MPEG4/ISO/AVC
Duration                       : 1 h 23 min
Bit rate                       : 899 kb/s
Width                          : 1 280 pixels
Height                         : 720 pixels
Display aspect ratio           : 16:9
Frame rate mode                : Constant
Frame rate                     : 23.976 (24000/1001) FPS
Color space                    : YUV
Chroma subsampling             : 4:2:0
Bit depth                      : 8 bits
Scan type                      : Progressive
Bits/(Pixel*Frame)             : 0.041
Stream size                    : 535 MiB (82%)
Title                          : GOPI SAHI
Writing library                : x264 core 157 r2935 545de2f

Audio #1
ID                             : 2
Format                         : AAC LC
Format/Info                    : Advanced Audio Codec Low Complexity
Codec ID                       : A_AAC-2
Duration                       : 1 h 23 min
Bit rate                       : 96.0 kb/s
Channel(s)                     : 2 channels
Channel layout                 : L R
Sampling rate                  : 48.0 kHz
Frame rate                     : 46.875 FPS (1024 SPF)
Compression mode               : Lossy
Delay relative to video        : -21 ms
Stream size                    : 57.3 MiB (9%)
Title                          : GOPI SAHI
Language                       : Hindi
Default                        : Yes
Forced                         : No

Audio #2
ID                             : 3
Format                         : AAC LC
Format/Info                    : Advanced Audio Codec Low Complexity
Codec ID                       : A_AAC-2
Duration                       : 1 h 23 min
Bit rate                       : 96.0 kb/s
Channel(s)                     : 2 channels
Channel layout                 : L R
Sampling rate                  : 48.0 kHz
Frame rate                     : 46.875 FPS (1024 SPF)
Compression mode               : Lossy
Delay relative to video        : -21 ms
Stream size                    : 57.5 MiB (9%)
Title                          : GOPI SAHI
Language                       : English
Default                        : No
Forced                         : No

Text
ID                             : 4
Format                         : PGS
Muxing mode                    : zlib
Codec ID                       : S_HDMV/PGS
Codec ID/Info                  : Picture based subtitle format used on BDs/HD-DVDs
Duration                       : 1 h 20 min
Bit rate                       : 17.5 kb/s
Count of elements              : 2159
Stream size                    : 10.1 MiB (2%)
Title                          : GOPI SAHI
Language                       : English
Default                        : No
Forced                         : No

Menu
00:00:00.000                   : :Chapter 1
00:10:10.693                   : :Chapter 2
00:15:06.781                   : :Chapter 3
00:22:07.326                   : :Chapter 4
00:30:48.805                   : :Chapter 5
00:40:17.123                   : :Chapter 6
00:51:08.857                   : :Chapter 7
01:00:04.434                   : :Chapter 8
01:11:32.413                   : :Chapter 9
01:20:31.035                   : :Chapter 10




ONLINE 720P