Trial by Fir 2018 x264 720p WebHD Esub Dual Audio English Hindi THE GOPI SAHI

Trial by Fire (2019)

R 05/17/2019 (US) DramaCrime 2h 7m

Stand for what's right. Fight for what's true.

Overview

The tragic and controversial story of Cameron Todd Willingham, who was executed in Texas for killing his three children after scientific evidence and expert testimony that bolstered his claims of innocence were suppressed.

Directed byEdward Zwick
Produced by
  • Alex Soros
  • Allyn Stewart
  • Edward Zwick
  • Kipp Nelson
Screenplay byGeoffrey S. Fletcher
Based onTrial by Fire[1]
by David Grann
Starring
Music byHenry Jackman
CinematographyJohn Guleserian
Edited bySteven Rosenblum
Production
companies
Distributed byRoadside Attractions
Release date
  • August 31, 2018 (Telluride)
  • May 17, 2019 (United States)
Running time
127 minutes
CountryUnited States
LanguageEnglish
Box office$148,504[2]
 


Trial by Fir 2018 x264 720p WebHD Esub Dual Audio English Hindi THE GOPI SAHI


Format                         : Matroska
Format version                 : Version 4
File size                      : 1.31 GiB
Duration                       : 2 h 7 min
Overall bit rate               : 1 477 kb/s
Movie name                     : Trial by Fir  2018 GOPI SAHI
Encoded date                   : UTC 2021-05-20 10:13:59

Video
ID                             : 1
Format                         : AVC
Format/Info                    : Advanced Video Codec
Format profile                 : [email protected]
Format settings                : CABAC / 5 Ref Frames
Format settings, CABAC         : Yes
Format settings, Reference fra : 5 frames
Codec ID                       : V_MPEG4/ISO/AVC
Duration                       : 2 h 7 min
Bit rate                       : 899 kb/s
Width                          : 1 280 pixels
Height                         : 690 pixels
Display aspect ratio           : 1.85:1
Frame rate mode                : Constant
Frame rate                     : 23.976 (24000/1001) FPS
Color space                    : YUV
Chroma subsampling             : 4:2:0
Bit depth                      : 8 bits
Scan type                      : Progressive
Bits/(Pixel*Frame)             : 0.042
Stream size                    : 818 MiB (61%)
Title                          : GOPI SAHI
Writing library                : x264 core 157 r2935 545de2f

Audio #1
ID                             : 2
Format                         : AAC LC
Format/Info                    : Advanced Audio Codec Low Complexity
Codec ID                       : A_AAC-2
Duration                       : 2 h 7 min
Bit rate                       : 384 kb/s
Channel(s)                     : 6 channels
Channel layout                 : C L R Ls Rs LFE
Sampling rate                  : 48.0 kHz
Frame rate                     : 46.875 FPS (1024 SPF)
Compression mode               : Lossy
Delay relative to video        : -21 ms
Stream size                    : 349 MiB (26%)
Title                          : GOPI SAHI
Language                       : Hindi
Default                        : Yes
Forced                         : No

Audio #2
ID                             : 3
Format                         : AAC LC
Format/Info                    : Advanced Audio Codec Low Complexity
Codec ID                       : A_AAC-2
Duration                       : 2 h 7 min
Bit rate                       : 192 kb/s
Channel(s)                     : 6 channels
Channel layout                 : C L R Ls Rs LFE
Sampling rate                  : 48.0 kHz
Frame rate                     : 46.875 FPS (1024 SPF)
Compression mode               : Lossy
Delay relative to video        : -21 ms
Stream size                    : 175 MiB (13%)
Title                          : GOPI SAHI
Language                       : English
Default                        : No
Forced                         : No

Text
ID                             : 4
Format                         : UTF-8
Codec ID                       : S_TEXT/UTF8
Codec ID/Info                  : UTF-8 Plain Text
Duration                       : 2 h 3 min
Bit rate                       : 75 b/s
Count of elements              : 1979
Stream size                    : 68.8 KiB (0%)
Title                          : GOPI SAHI
Language                       : English
Default                        : Yes
Forced                         : No



 

MAGNET

TORRENT


TORRENT 2 480P AND 720P CHOOSE WHICH ONE DWONLOAD

GDRIVE FILE COPY


DWONLOAD AUTO START IN 20 SEC

DOWNLOAD AND ONLINE TERABOX LINK = PASSWORD = haki

DWONLOAD AUTO START IN 20 SEC ZIP FILE

724 MB 480P DWONLOAD AUTO START IN 20 SEC

MULTIUP

MIRRORACE

MEDIAFIRE

ONLINE 720P

ONLINE 720P