Tropic Thunder 2008 Unrated x264 720p Esub BluRay Dual Audio English Hindi THE GOPI SAHI

 

Tropic Thunder (2008)

 
 
Through a series of freak occurrences, a group of actors shooting a big-budget war movie are forced to become the soldiers they are portraying.
EN

Director:

Ben Stiller

Writers:

Justin Theroux (screenplay), Ben Stiller (screenplay) | 3 more credits »
 
7.0/10
383,376
Directed byBen Stiller
Produced by
Screenplay by
Story by
  • Ben Stiller
  • Justin Theroux
Starring
Music byTheodore Shapiro
CinematographyJohn Toll
Edited byGreg Hayden
Production
companies
Distributed by
Release date
  • August 13, 2008
Running time
107 minutes[2]
Countries
LanguageEnglish
Budget$92 million[4]
Box office$195.7 million[4]

 


 

 Tropic Thunder 2008 Unrated x264 720p Esub BluRay Dual Audio English Hindi THE GOPI SAHI

Format                         : Matroska
Format version                 : Version 4
File size                      : 974 MiB
Duration                       : 2 h 1 min
Overall bit rate               : 1 124 kb/s
Movie name                     : Tropic Thunder 2008 Unrated GOPISAHI
Encoded date                   : UTC 2019-11-15 23:36:07

Video
ID                             : 1
Format                         : AVC
Format/Info                    : Advanced Video Codec
Format profile                 : [email protected]
Format settings                : CABAC / 12 Ref Frames
Format settings, CABAC         : Yes
Format settings, Reference fra : 12 frames
Codec ID                       : V_MPEG4/ISO/AVC
Duration                       : 2 h 1 min
Bit rate                       : 899 kb/s
Width                          : 1 280 pixels
Height                         : 544 pixels
Display aspect ratio           : 2.35:1
Frame rate mode                : Constant
Frame rate                     : 23.976 (24000/1001) FPS
Color space                    : YUV
Chroma subsampling             : 4:2:0
Bit depth                      : 8 bits
Scan type                      : Progressive
Bits/(Pixel*Frame)             : 0.054
Stream size                    : 778 MiB (80%)
Title                          : GOPISAHI
Writing library                : x264 core 157 r2935 545de2f

Audio #1
ID                             : 2
Format                         : AAC LC
Format/Info                    : Advanced Audio Codec Low Complexity
Codec ID                       : A_AAC-2
Duration                       : 2 h 1 min
Bit rate                       : 96.0 kb/s
Channel(s)                     : 2 channels
Channel layout                 : L R
Sampling rate                  : 48.0 kHz
Frame rate                     : 46.875 FPS (1024 SPF)
Compression mode               : Lossy
Delay relative to video        : -21 ms
Stream size                    : 83.6 MiB (9%)
Title                          : GOPISAHI
Language                       : Hindi
Default                        : Yes
Forced                         : No

Audio #2
ID                             : 3
Format                         : AAC LC
Format/Info                    : Advanced Audio Codec Low Complexity
Codec ID                       : A_AAC-2
Duration                       : 2 h 1 min
Bit rate                       : 96.0 kb/s
Channel(s)                     : 2 channels
Channel layout                 : L R
Sampling rate                  : 48.0 kHz
Frame rate                     : 46.875 FPS (1024 SPF)
Compression mode               : Lossy
Delay relative to video        : -21 ms
Stream size                    : 83.5 MiB (9%)
Title                          : GOPISAHI
Language                       : English
Default                        : No
Forced                         : No

Text
ID                             : 4
Format                         : PGS
Muxing mode                    : zlib
Codec ID                       : S_HDMV/PGS
Codec ID/Info                  : Picture based subtitle format used on BDs/HD-DVDs
Duration                       : 1 h 52 min
Bit rate                       : 73.5 kb/s
Count of elements              : 3532
Stream size                    : 59.2 MiB (6%)
Title                          : GOPISAHI
Language                       : English
Default                        : Yes
Forced                         : Yes

Menu
00:00:00.000                   : :Commercials (Spoof)
00:03:58.154                   : :Openings
00:10:17.533                   : :The Story
00:15:46.779                   : :On Location
00:20:44.660                   : :Not the Set
00:28:43.179                   : :Drop Them in the Shit
00:35:07.563                   : :You Are My Hero, Sir
00:41:16.348                   : :Plotting it Out
00:47:16.124                   : :Need a Jelly Bean!
00:50:50.964                   : :Where Are We?
00:55:45.508                   : :Tracing the Map
00:59:31.234                   : :On His Own
01:03:47.198                   : :Captured!
01:10:31.852                   : :The Black Tower
01:12:59.416                   : :Recreating
01:16:54.610                   : :Tracking
01:21:29.134                   : :Award Winning
01:25:42.637                   : :The Stars Above
01:28:59.792                   : :The Rescue
01:34:41.342                   : :Not According to Plan
01:38:44.251                   : :Demolition
01:45:07.551                   : :Mistakes
01:51:14.209                   : :The Award Goes To...
01:52:57.353                   : :End Credits

 




 MAGNET

TORRENT

TORRENT 2 ZIP FILE


GDRIVE FILE COPY

DWONLOAD AUTO START IN 20 SEC ZIP FILE

DOWNLOAD AND ONLINE DUBOX LINK = PASSWORD = fv6w

MULTIUP

MIRRORACE

MEDIAFIRE


ONLINE 720P

 

 ONLINE 720P


Post a comment

0 Comments