True Lies 1994 x264 720p Esub BluRay Dual Audio English Hindi THE GOPI SAHI

 

True Lies (1994)

 
 
A fearless, globe-trotting, terrorist-battling secret agent has his life turned upside down when he discovers his wife might be having an affair with a used-car salesman while terrorists smuggle nuclear war heads into the United States.
EN

Director:

James Cameron

Writers:

Claude Zidi (screenplay "La Totale!"), Simon Michaël (screenplay "La Totale!") | 2 more credits »
 
7.2/10
241,19
Directed byJames Cameron
Produced by
Screenplay byJames Cameron
Story by
Based onLa Totale!
by Claude Zidi
Simon Michaël
Didier Kaminka
Starring
Music byBrad Fiedel
CinematographyRussell Carpenter
Edited by
Production
company
Distributed by
Release date
  • July 15, 1994
Running time
141 minutes[1]
CountryUnited States
LanguageEnglish
Budget$100[2][3]–120[4] million
Box office$378.9 million[5]


True Lies 1994 x264 720p Esub BluRay Dual Audio English Hindi THE GOPI SAHI


Format                         : Matroska
Format version                 : Version 4
File size                      : 1.17 GiB
Duration                       : 2 h 20 min
Overall bit rate               : 1 191 kb/s
Movie name                     : True Lies 1994 GOPISAHI
Encoded date                   : UTC 2019-08-10 14:52:11

Video
ID                             : 1
Format                         : AVC
Format/Info                    : Advanced Video Codec
Format profile                 : [email protected]
Format settings                : CABAC / 9 Ref Frames
Format settings, CABAC         : Yes
Format settings, Reference fra : 9 frames
Codec ID                       : V_MPEG4/ISO/AVC
Duration                       : 2 h 20 min
Bit rate                       : 899 kb/s
Width                          : 1 280 pixels
Height                         : 720 pixels
Display aspect ratio           : 16:9
Frame rate mode                : Constant
Frame rate                     : 23.976 (24000/1001) FPS
Color space                    : YUV
Chroma subsampling             : 4:2:0
Bit depth                      : 8 bits
Scan type                      : Progressive
Bits/(Pixel*Frame)             : 0.041
Stream size                    : 905 MiB (75%)
Title                          : GOPISAHI
Writing library                : x264 core 157 r2935 545de2f

Audio #1
ID                             : 2
Format                         : AAC LC
Format/Info                    : Advanced Audio Codec Low Complexity
Codec ID                       : A_AAC-2
Duration                       : 2 h 20 min
Bit rate                       : 96.0 kb/s
Channel(s)                     : 2 channels
Channel layout                 : L R
Sampling rate                  : 48.0 kHz
Frame rate                     : 46.875 FPS (1024 SPF)
Compression mode               : Lossy
Delay relative to video        : -21 ms
Stream size                    : 97.3 MiB (8%)
Title                          : GOPISAHI
Language                       : Hindi
Default                        : Yes
Forced                         : No

Audio #2
ID                             : 3
Format                         : AAC LC
Format/Info                    : Advanced Audio Codec Low Complexity
Codec ID                       : A_AAC-2
Duration                       : 2 h 20 min
Bit rate                       : 192 kb/s
Channel(s)                     : 6 channels
Channel layout                 : C L R Ls Rs LFE
Sampling rate                  : 48.0 kHz
Frame rate                     : 46.875 FPS (1024 SPF)
Compression mode               : Lossy
Delay relative to video        : -21 ms
Stream size                    : 194 MiB (16%)
Title                          : GOPISAHI
Language                       : English
Default                        : No
Forced                         : No

Text #1
ID                             : 4
Format                         : UTF-8
Codec ID                       : S_TEXT/UTF8
Codec ID/Info                  : UTF-8 Plain Text
Duration                       : 2 h 19 min
Bit rate                       : 46 b/s
Count of elements              : 1873
Stream size                    : 47.3 KiB (0%)
Title                          : GOPISAHI
Language                       : English
Default                        : Yes
Forced                         : Yes

Text #2
ID                             : 5
Format                         : UTF-8
Codec ID                       : S_TEXT/UTF8
Codec ID/Info                  : UTF-8 Plain Text
Duration                       : 2 h 19 min
Bit rate                       : 45 b/s
Count of elements              : 1834
Stream size                    : 45.9 KiB (0%)
Title                          : GOPISAHI
Language                       : English
Default                        : No
Forced                         : No




 MAGNET

TORRENT


TORRENT 2

GDRIVE FILE COPY

DWONLOAD AUTO START IN 20 SEC


DOWNLOAD AND ONLINE DUBOX LINK
= PASSWORD = nyd1

MULTIUP

MIRRORACE

MEDIAFIRE

ONLINE 720P


ONLINE 720P