Untraceable 2008 x264 720p Esub BluRay Dual Audio English Hindi THE GOPI SAHI

 

Untraceable (2008)

 
 
FBI agent Jennifer Marsh is tasked with hunting down a seemingly untraceable serial killer who posts live videos of his victims on the Internet. As time runs out, the cat and mouse chase becomes more personal.
EN

Director:

Gregory Hoblit

Writers:

Robert Fyvolent (screenplay), Mark Brinker (screenplay) (as Mark R. Brinker) | 3 more credits »
 
 
6.2/10
47,932
 
 
Directed byGregory Hoblit
Produced by
Screenplay by
Story byRobert Fyvolent
Mark Brinker
Starring
Music byChristopher Young
CinematographyAnastas Michos
Edited byDavid Rosenbloom
Production
companies
Distributed bySony Pictures Releasing
Release date
  • January 25, 2008
Running time
101 minutes[1]
CountryUnited States
LanguageEnglish
Budget$35 million[1]
Box office$52.7 million[1][2]

 

Untraceable 2008 x264 720p Esub BluRay Dual Audio English Hindi THE GOPI SAHI


Format                         : Matroska
Format version                 : Version 4
File size                      : 799 MiB
Duration                       : 1 h 41 min
Overall bit rate               : 1 106 kb/s
Movie name                     : Untraceable 2008 GOPI SAHI
Encoded date                   : UTC 2021-05-06 13:36:28
Writing application            : mkvmerge v56.1.0 ('My Friend') 64-bit
Writing library                : libebml v1.4.2 + libmatroska v1.6.4

Video
ID                             : 1
Format                         : AVC
Format/Info                    : Advanced Video Codec
Format profile                 : [email protected]
Format settings                : CABAC / 5 Ref Frames
Format settings, CABAC         : Yes
Format settings, Reference fra : 5 frames
Codec ID                       : V_MPEG4/ISO/AVC
Duration                       : 1 h 41 min
Bit rate                       : 899 kb/s
Width                          : 1 280 pixels
Height                         : 534 pixels
Display aspect ratio           : 2.40:1
Frame rate mode                : Constant
Frame rate                     : 23.976 (24000/1001) FPS
Color space                    : YUV
Chroma subsampling             : 4:2:0
Bit depth                      : 8 bits
Scan type                      : Progressive
Bits/(Pixel*Frame)             : 0.055
Stream size                    : 649 MiB (81%)
Title                          : GOPI SAHI
Writing library                : x264 core 157 r2935 545de2f

Audio #1
ID                             : 2
Format                         : AAC LC
Format/Info                    : Advanced Audio Codec Low Complexity
Codec ID                       : A_AAC-2
Duration                       : 1 h 40 min
Bit rate                       : 96.0 kb/s
Channel(s)                     : 2 channels
Channel layout                 : L R
Sampling rate                  : 48.0 kHz
Frame rate                     : 46.875 FPS (1024 SPF)
Compression mode               : Lossy
Delay relative to video        : -21 ms
Stream size                    : 69.5 MiB (9%)
Title                          : GOPI SAHI
Language                       : Hindi
Default                        : Yes
Forced                         : No

Audio #2
ID                             : 3
Format                         : AAC LC
Format/Info                    : Advanced Audio Codec Low Complexity
Codec ID                       : A_AAC-2
Duration                       : 1 h 41 min
Bit rate                       : 96.0 kb/s
Channel(s)                     : 2 channels
Channel layout                 : L R
Sampling rate                  : 48.0 kHz
Frame rate                     : 46.875 FPS (1024 SPF)
Compression mode               : Lossy
Delay relative to video        : -21 ms
Stream size                    : 69.7 MiB (9%)
Title                          : GOPI SAHI
Language                       : English
Default                        : No
Forced                         : No

Text
ID                             : 4
Format                         : PGS
Muxing mode                    : zlib
Codec ID                       : S_HDMV/PGS
Codec ID/Info                  : Picture based subtitle format used on BDs/HD-DVDs
Duration                       : 1 h 32 min
Bit rate                       : 30.6 kb/s
Count of elements              : 1799
Stream size                    : 20.3 MiB (3%)
Title                          : GOPI SAHI
Language                       : English
Default                        : No
Forced                         : No

Menu
00:00:00.000                   : :Chapter 1
00:04:14.880                   : :Chapter 2
00:10:28.711                   : :Chapter 3
00:16:17.018                   : :Chapter 4
00:20:42.742                   : :Chapter 5
00:27:47.124                   : :Chapter 6
00:33:11.323                   : :Chapter 7
00:39:28.032                   : :Chapter 8
00:45:24.680                   : :Chapter 9
00:52:32.733                   : :Chapter 10
00:57:34.117                   : :Chapter 11
01:05:18.248                   : :Chapter 12
01:12:47.363                   : :Chapter 13
01:19:42.361                   : :Chapter 14
01:24:49.918                   : :Chapter 15
01:30:47.484                   : :Chapter 16




MAGNET

TORRENT

TORRENT 2 ZIP FILE

GDRIVE FILE COPY

DWONLOAD AUTO START IN 20 SEC ZIP FILE

DOWNLOAD AND ONLINE DUBOX LINK = PASSWORD = ehsc

MULTIUP

MIRRORACE

MEDIAFIRE

ONLINE 720P

ONLINE 720P