Zero Dark Thirty 2012 x264 720p Esub BluRay Dual Audio English Hindi THE GOPI SAHI

Zero Dark Thirty (2012)

R 02/15/2013 (IN) ThrillerDramaHistory 2h 37m 

The greatest manhunt in history.

Overview

A chronicle of the decade-long hunt for al-Qaeda terrorist leader Osama bin Laden after the September 2001 attacks, and his death at the hands of the Navy S.E.A.L. Team 6 in May, 2011.

 
Directed byKathryn Bigelow
Produced by
Written byMark Boal
Starring
Music byAlexandre Desplat
CinematographyGreig Fraser
Edited by
Production
companies
Distributed by
Release date
  • December 10, 2012 (Los Angeles)
  • December 19, 2012 (United States)
Running time
157 minutes[2]
CountryUnited States
LanguageEnglish
Budget$40 million[3]
Box office$132.8 million[3]

 


 

Zero Dark Thirty 2012 x264 720p Esub BluRay Dual Audio English Hindi THE GOPI SAHI


Format                         : Matroska
Format version                 : Version 4
File size                      : 1.43 GiB
Duration                       : 2 h 36 min
Overall bit rate               : 1 302 kb/s
Movie name                     : Zero Dark Thirty 2012 GOPISAHI
Encoded date                   : UTC 2019-08-21 14:26:15


Video
ID                             : 1
Format                         : AVC
Format/Info                    : Advanced Video Codec
Format profile                 : [email protected]
Format settings                : CABAC / 9 Ref Frames
Format settings, CABAC         : Yes
Format settings, Reference fra : 9 frames
Codec ID                       : V_MPEG4/ISO/AVC
Duration                       : 2 h 36 min
Bit rate                       : 899 kb/s
Width                          : 1 250 pixels
Height                         : 674 pixels
Display aspect ratio           : 1.85:1
Frame rate mode                : Constant
Frame rate                     : 23.976 (24000/1001) FPS
Color space                    : YUV
Chroma subsampling             : 4:2:0
Bit depth                      : 8 bits
Scan type                      : Progressive
Bits/(Pixel*Frame)             : 0.045
Stream size                    : 1 007 MiB (69%)
Title                          : GOPISAHI
Writing library                : x264 core 157 r2935 545de2f

Audio #1
ID                             : 2
Format                         : AAC LC
Format/Info                    : Advanced Audio Codec Low Complexity
Codec ID                       : A_AAC-2
Duration                       : 2 h 36 min
Bit rate                       : 192 kb/s
Channel(s)                     : 6 channels
Channel layout                 : C L R Ls Rs LFE
Sampling rate                  : 48.0 kHz
Frame rate                     : 46.875 FPS (1024 SPF)
Compression mode               : Lossy
Delay relative to video        : -21 ms
Stream size                    : 215 MiB (15%)
Title                          : GOPISAHI
Language                       : Hindi
Default                        : Yes
Forced                         : No

Audio #2
ID                             : 3
Format                         : AAC LC
Format/Info                    : Advanced Audio Codec Low Complexity
Codec ID                       : A_AAC-2
Duration                       : 2 h 36 min
Bit rate                       : 192 kb/s
Channel(s)                     : 6 channels
Channel layout                 : C L R Ls Rs LFE
Sampling rate                  : 48.0 kHz
Frame rate                     : 46.875 FPS (1024 SPF)
Compression mode               : Lossy
Delay relative to video        : -12 ms
Stream size                    : 215 MiB (15%)
Title                          : GOPISAHI
Language                       : English
Default                        : No
Forced                         : No

Text #1
ID                             : 4
Format                         : UTF-8
Codec ID                       : S_TEXT/UTF8
Codec ID/Info                  : UTF-8 Plain Text
Duration                       : 2 h 29 min
Bit rate                       : 78 b/s
Count of elements              : 2225
Stream size                    : 86.0 KiB (0%)
Title                          : GOPISAHI
Language                       : English
Default                        : Yes
Forced                         : Yes

Text #2
ID                             : 5
Format                         : PGS
Muxing mode                    : zlib
Codec ID                       : S_HDMV/PGS
Codec ID/Info                  : Picture based subtitle format used on BDs/HD-DVDs
Duration                       : 2 h 28 min
Bit rate                       : 34.8 kb/s
Count of elements              : 4451
Stream size                    : 37.1 MiB (3%)
Title                          : GOPISAHI
Language                       : English
Default                        : No
Forced                         : No

Text #3
ID                             : 6
Format                         : PGS
Muxing mode                    : zlib
Codec ID                       : S_HDMV/PGS
Codec ID/Info                  : Picture based subtitle format used on BDs/HD-DVDs
Duration                       : 2 h 28 min
Bit rate                       : 35.1 kb/s
Count of elements              : 3394
Stream size                    : 37.2 MiB (3%)
Title                          : GOPISAHI
Language                       : English
Default                        : No
Forced                         : No

Text #4
ID                             : 7
Format                         : PGS
Muxing mode                    : zlib
Codec ID                       : S_HDMV/PGS
Codec ID/Info                  : Picture based subtitle format used on BDs/HD-DVDs
Duration                       : 1 h 47 min
Bit rate                       : 337 b/s
Count of elements              : 30
Stream size                    : 267 KiB (0%)
Title                          : GOPISAHI
Language                       : English
Default                        : No
Forced                         : Yes

Menu
00:00:00.000                   : en:00:00:00.000
00:09:50.298                   : en:00:09:50.298
00:15:42.650                   : en:00:15:42.650
00:23:05.884                   : en:00:23:05.884
00:31:23.048                   : en:00:31:23.048
00:41:35.201                   : en:00:41:35.201
00:50:30.694                   : en:00:50:30.694
01:04:11.806                   : en:01:04:11.806
01:13:37.705                   : en:01:13:37.705
01:20:27.656                   : en:01:20:27.656
01:34:05.849                   : en:01:34:05.849
01:46:46.191                   : en:01:46:46.191
01:53:17.332                   : en:01:53:17.332
02:02:37.725                   : en:02:02:37.725
02:14:08.874                   : en:02:14:08.874
02:22:34.588                   : en:02:22:34.588





 MAGNET

TORRENT


TORRENT 2 480P AND 720P CHOOSE WHICH ONE DWONLOAD

GDRIVE FILE COPY

DWONLOAD AUTO START IN 20 SEC

DOWNLOAD AND ONLINE TERABOX LINK = PASSWORD = 5upk

DWONLOAD AUTO START IN 20 SEC ZIP FILE

879 MB HINDI 480P DWONLOAD AUTO START IN 20 SEC

MULTIUP

MIRRORACE

MEDIAFIRE

 DWNLOAD AND ONLINE

ONLINE 720P

ONLINE 720P