A Silent Voice 2016 x264 720p Esub BluRay English Hindi Japanese THE GOPI SAHI

 

A Silent Voice: The Movie (2016)

PG-13 09/17/2016 (JP) AnimationDrama 2h 10m 
 

Sometimes the answer is as simple as learning to listen.

Overview

Shouya Ishida starts bullying the new girl in class, Shouko Nishimiya, because she is deaf. But as the teasing continues, the rest of the class starts to turn on Shouya for his lack of compassion. When they leave elementary school, Shouko and Shouya do not speak to each other again... until an older, wiser Shouya, tormented by his past behaviour, decides he must see Shouko once more. He wants to atone for his sins, but is it already too late...?


Japanese聲の形
HepburnKoe no Katachi
Directed byNaoko Yamada
Produced by
  • Eharu Ōhashi
  • Shinichi Nakamura
  • Mikio Uetsuki
  • Toshio Iizuka
  • Kensuke Tateishi
Screenplay byReiko Yoshida
Based onA Silent Voice
by Yoshitoki Ōima
Starring
Music byKensuke Ushio
CinematographyKazuya Takao
Edited byKengo Shigemura
Production
company
Distributed byShochiku
Release date
  • September 17, 2016 (Japan)
Running time
130 minutes[1][2]
CountryJapan
LanguageJapanese
Box office$33 million



A Silent Voice 2016 x264 720p Esub BluRay English Hindi Japanese THE GOPI SAHI

Format                         : Matroska
Format version                 : Version 4
File size                      : 1.08 GiB
Duration                       : 2 h 10 min
Overall bit rate               : 1 190 kb/s
Movie name                     : A Silent Voice 2016 GOPI SAHI
Encoded date                   : UTC 2021-06-20 08:26:45

Video
ID                             : 1
Format                         : AVC
Format/Info                    : Advanced Video Codec
Format profile                 : [email protected]
Format settings                : CABAC / 5 Ref Frames
Format settings, CABAC         : Yes
Format settings, Reference fra : 5 frames
Codec ID                       : V_MPEG4/ISO/AVC
Duration                       : 2 h 10 min
Bit rate                       : 899 kb/s
Width                          : 1 280 pixels
Height                         : 690 pixels
Display aspect ratio           : 1.85:1
Frame rate mode                : Constant
Frame rate                     : 23.976 (24000/1001) FPS
Color space                    : YUV
Chroma subsampling             : 4:2:0
Bit depth                      : 8 bits
Scan type                      : Progressive
Bits/(Pixel*Frame)             : 0.042
Stream size                    : 836 MiB (76%)
Title                          : GOPI SAHI
Writing library                : x264 core 157 r2935 545de2f

Audio #1
ID                             : 2
Format                         : AAC LC
Format/Info                    : Advanced Audio Codec Low Complexity
Codec ID                       : A_AAC-2
Duration                       : 2 h 9 min
Bit rate                       : 96.0 kb/s
Channel(s)                     : 2 channels
Channel layout                 : L R
Sampling rate                  : 48.0 kHz
Frame rate                     : 46.875 FPS (1024 SPF)
Compression mode               : Lossy
Delay relative to video        : -16 ms
Stream size                    : 89.3 MiB (8%)
Title                          : GOPI SAHI
Language                       : Hindi
Default                        : Yes
Forced                         : No

Audio #2
ID                             : 3
Format                         : AAC LC
Format/Info                    : Advanced Audio Codec Low Complexity
Codec ID                       : A_AAC-2
Duration                       : 2 h 9 min
Bit rate                       : 96.0 kb/s
Channel(s)                     : 2 channels
Channel layout                 : L R
Sampling rate                  : 48.0 kHz
Frame rate                     : 46.875 FPS (1024 SPF)
Compression mode               : Lossy
Delay relative to video        : -21 ms
Stream size                    : 89.0 MiB (8%)
Title                          : GOPI SAHI
Language                       : English
Default                        : No
Forced                         : No

Audio #3
ID                             : 4
Format                         : AAC LC
Format/Info                    : Advanced Audio Codec Low Complexity
Codec ID                       : A_AAC-2
Duration                       : 2 h 9 min
Bit rate                       : 96.0 kb/s
Channel(s)                     : 2 channels
Channel layout                 : L R
Sampling rate                  : 48.0 kHz
Frame rate                     : 46.875 FPS (1024 SPF)
Compression mode               : Lossy
Delay relative to video        : -21 ms
Stream size                    : 89.0 MiB (8%)
Title                          : GOPI SAHI
Language                       : Japanese
Default                        : No
Forced                         : No

Text
ID                             : 5
Format                         : UTF-8
Codec ID                       : S_TEXT/UTF8
Codec ID/Info                  : UTF-8 Plain Text
Duration                       : 2 h 8 min
Bit rate                       : 46 b/s
Count of elements              : 1899
Stream size                    : 43.3 KiB (0%)
Title                          : GOPI SAHI
Language                       : English
Default                        : Yes
Forced                         : No

Menu
00:00:00.000                   : :Chapter 1
00:13:10.081                   : :Chapter 2
00:22:55.583                   : :Chapter 3
00:34:50.338                   : :Chapter 4
00:44:34.172                   : :Chapter 5
00:53:08.143                   : :Chapter 6
01:03:58.960                   : :Chapter 7
01:15:37.283                   : :Chapter 8
01:30:03.189                   : :Chapter 9
01:44:33.601                   : :Chapter 10
01:56:25.937                   : :Chapter 11
02:05:56.049                   : :Chapter 12




 MAGNET

TORRENT

TORRENT 2 480P AND 720P CHOOSE WHICH ONE DWONLOAD

GDRIVE FILE COPY

DWONLOAD AUTO START IN 20 SEC

DOWNLOAD AND ONLINE TERABOX LINK 


DWONLOAD AUTO START IN 20 SEC ZIP FILE


MEDIAFIRE

MEGANZ

RU

DWNLOAD AND ONLINE

ONLINE 720P

 

 
 
 
720P TEST
 

Post a Comment

0 Comments