Anger Management 2003 x264 720p Esub BluRay Dual Audio English Hindi THE GOPI SAHI

Anger Management (2003)

PG-13 04/11/2003 (US) Comedy 1h 46m

Feel the Love.

Overview

After a small misunderstanding aboard an airplane escalates out of control, timid businessman Dave Buznik is ordered by the court to undergo anger management therapy at the hands of specialist Dr. Buddy Rydell. But when Buddy steps up his aggressive treatment by moving in, Dave goes from mild to wild as the unorthodox treatment wreaks havoc with his life.

Directed byPeter Segal
Produced byJack Giarraputo
Barry Bernandi
Written byDavid S. Dorfman
StarringAdam Sandler
Jack Nicholson
Marisa Tomei
Luis Guzmán
Woody Harrelson
John Turturro
Music byTeddy Castellucci
CinematographyDonald McAlpine
Edited byJeff Gourson
Production
companies
Distributed bySony Pictures Releasing
Release date
  • April 11, 2003
Running time
106 minutes
CountryUnited States
LanguageEnglish
Budget$75 million[1]
Box office$195.7 million


Anger Management 2003 x264 720p Esub BluRay Dual Audio English Hindi THE GOPI SAHI


Format                         : Matroska

Format version                 : Version 4

File size                      : 825 MiB

Duration                       : 1 h 45 min

Overall bit rate               : 1 088 kb/s

Movie name                     : Anger Management 2003 GOPI SAHI

Encoded date                   : UTC 2021-06-13 20:49:38


Video

ID                             : 1

Format                         : AVC

Format/Info                    : Advanced Video Codec

Format profile                 : [email protected]

Format settings                : CABAC / 5 Ref Frames

Format settings, CABAC         : Yes

Format settings, Reference fra : 5 frames

Codec ID                       : V_MPEG4/ISO/AVC

Duration                       : 1 h 45 min

Bit rate                       : 899 kb/s

Width                          : 1 280 pixels

Height                         : 532 pixels

Display aspect ratio           : 2.40:1

Frame rate mode                : Constant

Frame rate                     : 23.976 (24000/1001) FPS

Color space                    : YUV

Chroma subsampling             : 4:2:0

Bit depth                      : 8 bits

Scan type                      : Progressive

Bits/(Pixel*Frame)             : 0.055

Stream size                    : 681 MiB (83%)

Title                          : GOPI SAHI

Writing library                : x264 core 157 r2935 545de2f


Audio #1

ID                             : 2

Format                         : AAC LC

Format/Info                    : Advanced Audio Codec Low Complexity

Codec ID                       : A_AAC-2

Duration                       : 1 h 39 min

Bit rate                       : 96.0 kb/s

Channel(s)                     : 2 channels

Channel layout                 : L R

Sampling rate                  : 44.1 kHz

Frame rate                     : 43.066 FPS (1024 SPF)

Compression mode               : Lossy

Delay relative to video        : -23 ms

Stream size                    : 68.5 MiB (8%)

Title                          : GOPI SAHI

Language                       : Hindi

Default                        : Yes

Forced                         : No


Audio #2

ID                             : 3

Format                         : AAC LC

Format/Info                    : Advanced Audio Codec Low Complexity

Codec ID                       : A_AAC-2

Duration                       : 1 h 45 min

Bit rate                       : 96.0 kb/s

Channel(s)                     : 2 channels

Channel layout                 : L R

Sampling rate                  : 48.0 kHz

Frame rate                     : 46.875 FPS (1024 SPF)

Compression mode               : Lossy

Delay relative to video        : -21 ms

Stream size                    : 73.1 MiB (9%)

Title                          : GOPI SAHI

Language                       : English

Default                        : No

Forced                         : No






MAGNET


TORRENT


TORRENT 2 480P AND 720P CHOOSE WHICH ONE DWONLOAD


GDRIVE FILE COPY


DWONLOAD AUTO START IN 20 SEC 


DOWNLOAD AND ONLINE TERABOX LINK = PASSWORD = t9yg


DWONLOAD AUTO START IN 20 SEC ZIP FILE


578 MB HINDI 480P DWONLOAD AUTO START IN 20 SEC 


MEDIAFIRE


DWNLOAD AND ONLINE


ONLINE 720P


Post a Comment

1 Comments

No Except Any Movie Request Here,Try To Donate Money For Website Then Request, If You No Donate Way Post Request Here ,Nonprofit Services, No Ads, No Any Earning, If Download Link Not Work Post a Comment On Movie Page For Re-upload, Post a Comment On Any Movie Page If You Donate For This Website, Thanks Keep Support. Any Torrent-Magnet Not Reseed,Seed Only First 30 Days,Then Use Google Drive For Download.