Atomic Blonde 2017 x264 720p Esub BluRay Dual Audio English Hindi THE GOPI SAHI

Atomic Blonde (2017)

R 07/28/2017 (US) ActionThriller 1h 55m 
 

Talents can be overrated.

Overview

An undercover MI6 agent is sent to Berlin during the Cold War to investigate the murder of a fellow agent and recover a missing list of double agents.

Directed byDavid Leitch
Produced by
Screenplay byKurt Johnstad
Based onThe Coldest City
by Antony Johnston
Sam Hart
Starring
Music byTyler Bates
CinematographyJonathan Sela
Edited byElísabet Ronaldsdóttir
Production
companies
Distributed byFocus Features
Release date
  • March 12, 2017 (SXSW)
  • July 28, 2017 (United States)
Running time
115 minutes[1]
CountryUnited States
Languages
  • English
  • Russian
Budget$30 million[2]
Box office$100 million[2]

 

Atomic Blonde 2017 x264 720p Esub BluRay Dual Audio English Hindi THE GOPI SAHI

Format                         : Matroska
Format version                 : Version 4
File size                      : 906 MiB
Duration                       : 1 h 54 min
Overall bit rate               : 1 104 kb/s
Movie name                     : Atomic Blonde 2017 GOPI SAHI
Encoded date                   : UTC 2021-06-11 01:54:10

Video
ID                             : 1
Format                         : AVC
Format/Info                    : Advanced Video Codec
Format profile                 : [email protected]
Format settings                : CABAC / 5 Ref Frames
Format settings, CABAC         : Yes
Format settings, Reference fra : 5 frames
Codec ID                       : V_MPEG4/ISO/AVC
Duration                       : 1 h 54 min
Bit rate                       : 899 kb/s
Width                          : 1 280 pixels
Height                         : 536 pixels
Display aspect ratio           : 2.40:1
Frame rate mode                : Constant
Frame rate                     : 23.976 (24000/1001) FPS
Color space                    : YUV
Chroma subsampling             : 4:2:0
Bit depth                      : 8 bits
Scan type                      : Progressive
Bits/(Pixel*Frame)             : 0.055
Stream size                    : 738 MiB (81%)
Title                          : GOPI SAHI
Writing library                : x264 core 157 r2935 545de2f

Audio #1
ID                             : 2
Format                         : AAC LC
Format/Info                    : Advanced Audio Codec Low Complexity
Codec ID                       : A_AAC-2
Duration                       : 1 h 54 min
Bit rate                       : 96.0 kb/s
Channel(s)                     : 2 channels
Channel layout                 : L R
Sampling rate                  : 48.0 kHz
Frame rate                     : 46.875 FPS (1024 SPF)
Compression mode               : Lossy
Delay relative to video        : 2 ms
Stream size                    : 79.1 MiB (9%)
Title                          : GOPI SAHI
Language                       : Hindi
Default                        : Yes
Forced                         : No

Audio #2
ID                             : 3
Format                         : AAC LC
Format/Info                    : Advanced Audio Codec Low Complexity
Codec ID                       : A_AAC-2
Duration                       : 1 h 54 min
Bit rate                       : 96.0 kb/s
Channel(s)                     : 2 channels
Channel layout                 : L R
Sampling rate                  : 48.0 kHz
Frame rate                     : 46.875 FPS (1024 SPF)
Compression mode               : Lossy
Delay relative to video        : -21 ms
Stream size                    : 79.2 MiB (9%)
Title                          : GOPI SAHI
Language                       : English
Default                        : No
Forced                         : No

Text
ID                             : 4
Format                         : PGS
Muxing mode                    : zlib
Codec ID                       : S_HDMV/PGS
Codec ID/Info                  : Picture based subtitle format used on BDs/HD-DVDs
Duration                       : 1 h 47 min
Bit rate                       : 31.5 kb/s
Count of elements              : 2411
Stream size                    : 24.3 MiB (3%)
Title                          : GOPI SAHI
Language                       : English
Default                        : No
Forced                         : No

Menu
00:00:00.000                   : :00:00:00.000
00:06:47.991                   : :00:06:47.991
00:11:03.163                   : :00:11:03.162
00:18:17.221                   : :00:18:17.221
00:24:15.579                   : :00:24:15.579
00:27:47.166                   : :00:27:47.165
00:32:50.010                   : :00:32:50.010
00:36:20.095                   : :00:36:20.095
00:40:46.152                   : :00:40:46.152
00:47:55.664                   : :00:47:55.664
00:53:13.482                   : :00:53:13.482
00:59:54.091                   : :00:59:54.090
01:03:32.767                   : :01:03:32.767
01:08:03.788                   : :01:08:03.788
01:10:52.498                   : :01:10:52.415
01:18:27.578                   : :01:18:27.453
01:24:28.272                   : :01:24:28.272
01:32:44.392                   : :01:32:44.267
01:42:06.245                   : :01:42:06.245
01:48:21.078                   : :01:48:21.078




MAGNET

TORRENT

TORRENT 2 480P AND 720P CHOOSE WHICH ONE DWONLOAD


GDRIVE FILE COPY

DWONLOAD AUTO START IN 20 SEC

DOWNLOAD AND ONLINE TERABOX LINK = PASSWORD = v1hh

DWONLOAD AUTO START IN 20 SEC ZIP FILE


655 MB HINDI 480P DWONLOAD AUTO START IN 20 SEC

MEDIAFIRE


DWNLOAD AND ONLINE

ONLINE 720P

 

Post a Comment

0 Comments