Blood and Bone 2009 x264 720p BluRay Dual Audio English Hindi THE GOPI SAHI

 

Blood and Bone (2009)

R 02/07/2009 (DE) DramaActionThriller 1h 33m 

Destroy your enemy

Overview

In Los Angeles, an ex-con takes the underground fighting world by storm in his quest to fulfill a promise to a dead friend.

Directed byBen Ramsey
Produced byMatthew Binns
Michael Mailer
Nick Simunek
Michael Andrews
John Duffy
Michael Jai White
Written byMichael Andrews
StarringMichael Jai White
Julian Sands
Eamonn Walker
Dante Basco
Nona Gaye
Shannon Kane
Michelle Belegrin
Bob Sapp
Music byNicholas Pike
CinematographyRoy H. Wagner
Edited byDean Goodhill
Production
companies
Michael Mailer Films
Remarkable Films
Cinema Management Group
Distributed bySony Pictures Entertainment
Release date
  • September 15, 2009
Running time
93 minutes
CountryUnited States
LanguageEnglish
Budget$3,700,000 (estimated)

 

 

Blood and Bone 2009 x264 720p BluRay Dual Audio English Hindi THE GOPI SAHI

Format                         : Matroska
Format version                 : Version 4
File size                      : 730 MiB
Duration                       : 1 h 33 min
Overall bit rate               : 1 092 kb/s
Movie name                     : Blood and Bone 2009 GOPI SAHI
Encoded date                   : UTC 2021-06-05 02:42:39

Video
ID                             : 1
Format                         : AVC
Format/Info                    : Advanced Video Codec
Format profile                 : [email protected]
Format settings                : CABAC / 5 Ref Frames
Format settings, CABAC         : Yes
Format settings, Reference fra : 5 frames
Codec ID                       : V_MPEG4/ISO/AVC
Duration                       : 1 h 33 min
Bit rate                       : 899 kb/s
Width                          : 1 280 pixels
Height                         : 720 pixels
Display aspect ratio           : 16:9
Frame rate mode                : Constant
Frame rate                     : 23.976 (24000/1001) FPS
Color space                    : YUV
Chroma subsampling             : 4:2:0
Bit depth                      : 8 bits
Scan type                      : Progressive
Bits/(Pixel*Frame)             : 0.041
Stream size                    : 599 MiB (82%)
Title                          : GOPI SAHI
Writing library                : x264 core 157 r2935 545de2f

Audio #1
ID                             : 2
Format                         : AAC LC
Format/Info                    : Advanced Audio Codec Low Complexity
Codec ID                       : A_AAC-2
Duration                       : 1 h 33 min
Bit rate                       : 96.0 kb/s
Channel(s)                     : 2 channels
Channel layout                 : L R
Sampling rate                  : 48.0 kHz
Frame rate                     : 46.875 FPS (1024 SPF)
Compression mode               : Lossy
Stream size                    : 64.4 MiB (9%)
Title                          : GOPI SAHI
Language                       : Hindi
Default                        : Yes
Forced                         : No

Audio #2
ID                             : 3
Format                         : AAC LC
Format/Info                    : Advanced Audio Codec Low Complexity
Codec ID                       : A_AAC-2
Duration                       : 1 h 33 min
Bit rate                       : 96.0 kb/s
Channel(s)                     : 2 channels
Channel layout                 : L R
Sampling rate                  : 48.0 kHz
Frame rate                     : 46.875 FPS (1024 SPF)
Compression mode               : Lossy
Delay relative to video        : -21 ms
Stream size                    : 64.2 MiB (9%)
Title                          : GOPI SAHI
Language                       : English
Default                        : No
Forced                         : No




MAGNET

TORRENT

TORRENT 2 480P AND 720P CHOOSE WHICH ONE DWONLOAD

GDRIVE FILE COPY

DWONLOAD AUTO START IN 20 SEC

DOWNLOAD AND ONLINE TERABOX LINK
= PASSWORD = 4tud

DWONLOAD AUTO START IN 20 SEC ZIP FILE

416 MB HINDI 480P DWONLOAD AUTO START IN 20 SEC

MULTIUP


MIRRORACE


MEDIAFIRE

DWNLOAD AND ONLINE


ONLINE 720P

 

Post a Comment

0 Comments